Клабуш / Klaabu (Аво Пайстик) [1978, мультфильм, DVDRip]

 
Автор Сообщение

TorrentFilm ®

Пол:

Стаж: 2 года

Сообщений: 7741



Награды: Нет

Торрент-статистика

Создавать темы 14-Дек-2014 02:00

[Цитировать]

Клабуш / Klaabu
Страна: СССР
Производство: Таллинфильм
Жанр: мультфильм
Продолжительность: 00:09:47
Год выпуска: 1978
Русские субтитры: нет
Режиссёр: Аво Пайстик
Описание: Мультфильм о приключениях Клабуша. Снесла птичка яйцо, но не простое, а с глазками, ручками, ножками и ушками-рожками, которые постоянно меняются, в зависимости от ситуации. И называется оно Клабуш. Вот ходило оно, летало и даже плавало и наконец встретило родственную душу Нипи…
Кинопоиск
Качество: DVDRip
Формат: AVI
Видео: 656x480 (1.37:1), 25 fps, XviD MPEG-4 ~2089 kbps avg, 0.265 bit/pixel
Аудио: 48.0 kHz, AC-3, 2 ch, ~192.00 kbps avg
Субтитры: Отсутствуют

MediaInfo

GeneralComplete name : E:\1\Клабуш 1979.aviFormat : AVIFormat/Info : Audio Video InterleaveFile size : 161 MiBDuration : 9mn 47sOverall bit rate : 2 291 KbpsWriting application : VirtualDubMod 1.5.10.3 | www.virtualdub-fr.org || (build 2550/release)Writing library : VirtualDubMod build 2550/release
VideoID : 0Format : MPEG-4 VisualFormat profile : Advanced Simple@L5Format settings, BVOP : 1Format settings, QPel : NoFormat settings, GMC : No warppointsFormat settings, Matrix : Default (MPEG)Codec ID : XVIDCodec ID/Hint : XviDDuration : 9mn 47sBit rate : 2 089 KbpsWidth : 656 pixelsHeight : 480 pixelsDisplay aspect ratio : 4:3Frame rate : 25.000 fpsColor space : YUVChroma subsampling : 4:2:0Bit depth : 8 bitsScan type : ProgressiveCompression mode : LossyBits/(Pixel*Frame) : 0.265Stream size : 146 MiB (91%)Writing library : XviD 64
AudioID : 1Format : AC-3Format/Info : Audio Coding 3Mode extension : CM (complete main)Format settings, Endianness : BigCodec ID : 2000Duration : 9mn 47sBit rate mode : ConstantBit rate : 192 KbpsChannel count : 2 channelsChannel positions : Front: L RSampling rate : 48.0 KHzBit depth : 16 bitsCompression mode : LossyStream size : 13.4 MiB (8%)Alignment : Split accross interleavesInterleave, duration : 40 ms (1.00 video frame)Interleave, preload duration : 500 ms

Сравнение

Сравнение с мультом из этой раздачи - http://torrentfilm.net/forum/viewtopic.php?t=839710
http://screenshotcomparison.com/comparison/88891/picture:0

Скриншоты

[Профиль] [ЛС]
Показать сообщения:    

Текущее время: Сегодня 06:23

Часовой пояс: GMT



Вы не можете начинать темы
Вы не можете отвечать на сообщения
Вы не можете редактировать свои сообщения
Вы не можете удалять свои сообщения
Вы не можете голосовать в опросах
Вы не можете прикреплять файлы к сообщениям
Вы не можете скачивать файлы