Кит и кот (Ирина Гурвич) [1969, Рисованный мультфильм, SATRip]

 
Автор Сообщение

TorrentFilm ®

Пол:

Стаж: 2 года

Сообщений: 7741



Награды: Нет

Торрент-статистика

Создавать темы 03-Янв-2016 00:04

[Цитировать]

Кит и кот
Страна: СССР
Жанр: Рисованный мультфильм
Продолжительность: 00:08:55
Год выпуска: 1969
Русские субтитры: нет
Режиссёр: Ирина Гурвич
Роли озвучивали: Борис Заходер
Описание: Мультфильм по одноименному стихотворению Бориса Заходера про путаницу в буквах – “Жили-были КОТ и КИТ. КОТ — огромный, просто страшный! КИТ был маленький, домашний” ...
Доп. информация: «Киевнаучфильм»
Художник-постановщик:Ю.Скирда
Оператор:Б.Котов
Сценарий: Б.Заходер
Композитор:Б.Буевский
Релиз группы:
Работа со звуком dvdss
Качество: SATRip
Формат: AVI
Видео: 704x528 (1.33:1), 25 fps, XviD build 65 ~2100 kbps avg, 0.23 bit/pixel
Аудио: 48 kHz, AC3 Dolby Digital, 1/0 (C) ch, ~192.00 kbps avg
Субтитры: нет

Подробные технические данные

Format : AVIFormat/Info : Audio Video InterleaveFile size : 147 MiBDuration : 8mn 55sOverall bit rate : 2 303 KbpsWriting application : VirtualDubModRus 1.5.10.2 (build 2542/release)Copyright : Rutracker.orgComment : SATRip by dvdss
VideoID : 0Format : MPEG-4 VisualFormat profile : Advanced Simple@L5Format settings, BVOP : 2Format settings, QPel : NoFormat settings, GMC : No warppointsFormat settings, Matrix : CustomCodec ID : XVIDCodec ID/Hint : XviDDuration : 8mn 55sBit rate : 2 101 KbpsWidth : 704 pixelsHeight : 528 pixelsDisplay aspect ratio : 5:4Original display aspect ratio : 4:3Frame rate : 25.000 fpsColor space : YUVChroma subsampling : 4:2:0Bit depth : 8 bitsScan type : ProgressiveCompression mode : LossyBits/(Pixel*Frame) : 0.226Stream size : 134 MiB (91%)Writing library : XviD 65
AudioID : 1Format : AC-3Format/Info : Audio Coding 3Mode extension : CM (complete main)Format settings, Endianness : BigCodec ID : 2000Duration : 8mn 55sBit rate mode : ConstantBit rate : 192 KbpsChannel(s) : 1 channelChannel positions : Front: CSampling rate : 48.0 KHzBit depth : 16 bitsCompression mode : LossyDelay relative to video : 3msStream size : 12.3 MiB (8%)Alignment : Split accross interleavesInterleave, duration : 40 ms (1.00 video frame)Interleave, preload duration : 500 ms

Скриншоты

[Профиль] [ЛС]
Показать сообщения:    

Текущее время: Сегодня 20:10

Часовой пояс: GMT



Вы не можете начинать темы
Вы не можете отвечать на сообщения
Вы не можете редактировать свои сообщения
Вы не можете удалять свои сообщения
Вы не можете голосовать в опросах
Вы не можете прикреплять файлы к сообщениям
Вы не можете скачивать файлы