Кипелoв • X лeт • Крокус Сити Холл [2013, Heavy Metal, Blu-ray]

 
Автор Сообщение

reversefile ®

Пол:

Стаж: 4 года 5 месяцев

Сообщений: 842

Откуда: ReverseFile.org



Награды: Нет

Торрент-статистика

Создавать темы 11-Авг-2014 19:03

[Цитировать]


Х лет – Крокус Сити Холл
Жанр: Heavy Metal
Продолжительность: 02:03:30
Год выпуска: 2013
Валерий Кипелов - вокал
Вячеслав Молчанов - гитара
Андрей Голованов - гитара
Алексей Харьков - бас-гитара
Александр Манякин - барабаны

В 2012 году группа «Кипелов» отмечала десятилетие с момента начала своего существования.
В рамках этого события было запланировано два крупных события: выход нового сингла и большой концертный тур. Центральным концертом этого тура стало выступление группы в зале Крокус Сити Холл (Москва) 1 декабря.

Треклист

01. Интро
02. Жить вопреки
03. Еще повоюем
04. Вавилон
05. Наваждение
06. Я здесь
07. Гламурная птица
08. Власть огня
09. Дыхание последней любви
10. Дыхание тьмы
11. Castlevania
12. Мертвая зона
13. Потерянный рай
14. Грязь
15. Не сейчас
16. Реки времен
17. Ой, то не вечер
18. Призрачный взвод
19. Я свободен!
20. Попурри (Встань, страх преодолей; Тореро; Воля и разум)
Качество: Blu-ray
Контейнер: BDMV
Видео кодек: MPEG4
Аудио кодек: DTS, AC3, PCM
Видео: MPEG-4 AVC Video / 24714 kbps / 1080i / 25 fps / 16:9 / High Profile 4.1
Аудио 1: Russian / DTS-HD Master Audio / 5.1 / 48 kHz / 2854 kbps / 16-bit (DTS Core: 5.1 / 48 kHz / 1509 kbps / 16-bit)
Аудио 2: Russian / Dolby Digital Audio / 5.1 / 48 kHz / 448 kbps
Аудио 3: Russian / LPCM Audio / 2.0 / 48 kHz / 1536 kbps / 16-bit

Отчёт MediaInfo / BDInfo

Disc Title: Кипелов Х лет – Крокус Сити Холл Blu rayDisc Size: 32 127 181 925 bytesProtection: AACSBD-Java: YesExtras: 50Hz ContentBDInfo: 0.5.8
Notes:
BDINFO HOME: Cinema Squid http://www.cinemasquid.com/blu-ray/tools/bdinfo
INCLUDES FORUMS REPORT FOR: AVS Forum Blu-ray Audio and Video Specifications Thread http://www.avsforum.com/avs-vb/showthread.php?t=1155731
********************PLAYLIST: 00003.MPLS********************
Total   Video
Title                                                           Codec   Length  Movie Size      Disc Size       Bitrate Bitrate Main Audio Track                          Secondary Audio Track
-----                                                           ------  ------- --------------  --------------  ------- ------- ------------------                        ---------------------
00003.MPLS                                                      AVC     2:03:30 29 109 172 224  32 127 181 925  31,42   24,71   DTS-HD Master 5.1 2854Kbps (48kHz/16-bit) DD AC3 5.1 448Kbps
DISC INFO:
Disc Title:     Кипелов Х лет – Крокус Сити Холл Blu ray
Disc Size:      32 127 181 925 bytes
Protection:     AACS
BD-Java:        Yes
Extras:         50Hz Content
BDInfo:         0.5.8
PLAYLIST REPORT:
Name:                   00003.MPLS
Length:                 2:03:30.520 (h:m:s.ms)
Size:                   29 109 172 224 bytes
Total Bitrate:          31,42 Mbps
VIDEO:
Codec                   Bitrate             Description
-----                   -------             -----------
MPEG-4 AVC Video        24714 kbps          1080i / 25 fps / 16:9 / High Profile 4.1
AUDIO:
Codec                           Language        Bitrate         Description
-----                           --------        -------         -----------
DTS-HD Master Audio             Russian         2854 kbps       5.1 / 48 kHz / 2854 kbps / 16-bit (DTS Core: 5.1 / 48 kHz / 1509 kbps / 16-bit)
Dolby Digital Audio             Russian         448 kbps        5.1 / 48 kHz / 448 kbps
LPCM Audio                      Russian         1536 kbps       2.0 / 48 kHz / 1536 kbps / 16-bit
FILES:
Name            Time In         Length          Size            Total Bitrate
----            -------         ------          ----            -------------
00003.M2TS      0:00:00.000     2:03:30.520     29 109 172 224  31 425
CHAPTERS:
Number          Time In         Length          Avg Video Rate  Max 1-Sec Rate  Max 1-Sec Time  Max 5-Sec Rate  Max 5-Sec Time  Max 10Sec Rate  Max 10Sec Time  Avg Frame Size  Max Frame Size  Max Frame Time
------          -------         ------          --------------  --------------  --------------  --------------  --------------  --------------  --------------  --------------  --------------  --------------
1               0:00:00.000     2:03:30.520     24 714 kbps     43 027 kbps     01:43:03.080    34 215 kbps     00:01:36.199    31 113 kbps     02:03:05.240    123 570 bytes   587 371 bytes   01:43:03.800
STREAM DIAGNOSTICS:
File            PID             Type            Codec           Language                Seconds                 Bitrate                 Bytes           Packets
----            ---             ----            -----           --------                --------------          --------------          -------------   -----
00003.M2TS      4113 (0x1011)   0x1B            AVC                                     7410,400                24 714                  22 892 886 584  124 527 582
00003.M2TS      4352 (0x1100)   0x86            DTS-HD MA       rus (Russian)           7410,400                2 854                   2 643 586 608   15 522 428
00003.M2TS      4353 (0x1101)   0x81            AC3             rus (Russian)           7410,400                448                     414 989 568     2 315 790
00003.M2TS      4354 (0x1102)   0x80            LPCM            rus (Russian)           7410,400                1 546                   1 432 237 936   8 914 349
QUICK SUMMARY:
Disc Title: Кипелов Х лет – Крокус Сити Холл Blu rayDisc Size: 32 127 181 925 bytesProtection: AACSBD-Java: YesPlaylist: 00003.MPLSSize: 29 109 172 224 bytesLength: 2:03:30.520Total Bitrate: 31,42 MbpsVideo: MPEG-4 AVC Video / 24714 kbps / 1080i / 25 fps / 16:9 / High Profile 4.1Audio: Russian / DTS-HD Master Audio / 5.1 / 48 kHz / 2854 kbps / 16-bit (DTS Core: 5.1 / 48 kHz / 1509 kbps / 16-bit)Audio: Russian / Dolby Digital Audio / 5.1 / 48 kHz / 448 kbpsAudio: Russian / LPCM Audio / 2.0 / 48 kHz / 1536 kbps / 16-bit
********************PLAYLIST: 01002.MPLS********************
Total   Video
Title                                                           Codec   Length  Movie Size      Disc Size       Bitrate Bitrate Main Audio Track                          Secondary Audio Track
-----                                                           ------  ------- --------------  --------------  ------- ------- ------------------                        ---------------------
01002.MPLS                                                      AVC     2:03:30 29 109 172 224  32 127 181 925  31,42   24,71   DTS-HD Master 5.1 2854Kbps (48kHz/16-bit) DD AC3 5.1 448Kbps
DISC INFO:
Disc Title:     Кипелов Х лет – Крокус Сити Холл Blu ray
Disc Size:      32 127 181 925 bytes
Protection:     AACS
BD-Java:        Yes
Extras:         50Hz Content
BDInfo:         0.5.8
PLAYLIST REPORT:
Name:                   01002.MPLS
Length:                 2:03:30.520 (h:m:s.ms)
Size:                   29 109 172 224 bytes
Total Bitrate:          31,42 Mbps
VIDEO:
Codec                   Bitrate             Description
-----                   -------             -----------
MPEG-4 AVC Video        24714 kbps          1080i / 25 fps / 16:9 / High Profile 4.1
AUDIO:
Codec                           Language        Bitrate         Description
-----                           --------        -------         -----------
DTS-HD Master Audio             Russian         2854 kbps       5.1 / 48 kHz / 2854 kbps / 16-bit (DTS Core: 5.1 / 48 kHz / 1509 kbps / 16-bit)
Dolby Digital Audio             Russian         448 kbps        5.1 / 48 kHz / 448 kbps
LPCM Audio                      Russian         1536 kbps       2.0 / 48 kHz / 1536 kbps / 16-bit
FILES:
Name            Time In         Length          Size            Total Bitrate
----            -------         ------          ----            -------------
00003.M2TS      0:00:00.000     2:03:30.520     29 109 172 224  31 425
CHAPTERS:
Number          Time In         Length          Avg Video Rate  Max 1-Sec Rate  Max 1-Sec Time  Max 5-Sec Rate  Max 5-Sec Time  Max 10Sec Rate  Max 10Sec Time  Avg Frame Size  Max Frame Size  Max Frame Time
------          -------         ------          --------------  --------------  --------------  --------------  --------------  --------------  --------------  --------------  --------------  --------------
1               0:00:00.000     0:01:37.479     10 294 kbps     39 311 kbps     00:01:26.679    23 263 kbps     00:01:23.919    20 672 kbps     00:01:26.640    51 450 bytes    425 593 bytes   00:01:26.959
2               0:01:37.479     0:04:39.799     26 728 kbps     37 960 kbps     00:01:39.479    33 080 kbps     00:01:37.600    30 674 kbps     00:03:50.320    133 638 bytes   428 349 bytes   00:01:38.520
3               0:06:17.279     0:07:06.840     25 036 kbps     33 645 kbps     00:07:32.560    30 591 kbps     00:06:17.279    29 781 kbps     00:09:37.000    125 181 bytes   369 617 bytes   00:11:30.840
4               0:13:24.120     0:06:06.080     25 965 kbps     33 738 kbps     00:18:16.680    31 014 kbps     00:16:53.280    29 698 kbps     00:16:53.320    129 823 bytes   401 832 bytes   00:18:15.080
5               0:19:30.200     0:06:12.920     24 925 kbps     33 902 kbps     00:19:53.040    30 885 kbps     00:23:43.280    29 592 kbps     00:23:40.720    124 624 bytes   425 008 bytes   00:19:39.440
6               0:25:43.120     0:05:53.919     23 710 kbps     34 162 kbps     00:31:26.880    30 895 kbps     00:26:04.920    30 803 kbps     00:26:05.080    118 551 bytes   453 560 bytes   00:27:26.200
7               0:31:37.040     0:06:15.680     25 233 kbps     33 813 kbps     00:35:11.080    31 531 kbps     00:31:37.040    29 489 kbps     00:36:41.600    126 163 bytes   452 897 bytes   00:35:11.120
8               0:37:52.720     0:05:05.520     25 972 kbps     36 329 kbps     00:42:57.240    31 333 kbps     00:42:40.600    30 214 kbps     00:39:56.120    129 860 bytes   476 541 bytes   00:42:57.520
9               0:42:58.240     0:06:30.839     24 483 kbps     36 268 kbps     00:43:56.600    31 701 kbps     00:46:19.480    30 181 kbps     00:46:12.640    122 413 bytes   443 440 bytes   00:43:51.200
10              0:49:29.080     0:05:24.559     25 585 kbps     33 857 kbps     00:49:39.840    31 385 kbps     00:53:47.480    30 027 kbps     00:53:44.120    127 924 bytes   392 198 bytes   00:49:39.480
11              0:54:53.640     0:06:49.039     24 711 kbps     38 712 kbps     00:55:01.120    31 621 kbps     00:54:59.160    30 151 kbps     00:59:06.120    123 554 bytes   458 267 bytes   00:55:00.200
12              1:01:42.680     0:06:43.200     24 588 kbps     33 706 kbps     01:02:57.680    30 990 kbps     01:03:27.000    30 348 kbps     01:06:55.200    122 942 bytes   429 757 bytes   01:06:08.520
13              1:08:25.880     0:06:20.159     24 178 kbps     40 759 kbps     01:09:03.280    33 416 kbps     01:08:59.040    30 636 kbps     01:08:54.120    120 889 bytes   463 260 bytes   01:09:03.320
14              1:14:46.040     0:04:50.079     25 990 kbps     33 296 kbps     01:16:29.800    30 612 kbps     01:18:26.240    29 491 kbps     01:15:27.960    129 949 bytes   415 576 bytes   01:14:52.720
15              1:19:36.120     0:05:34.159     24 517 kbps     38 338 kbps     01:19:51.800    30 348 kbps     01:20:35.680    28 860 kbps     01:20:30.760    122 587 bytes   448 409 bytes   01:19:51.840
16              1:25:10.280     0:05:10.840     23 645 kbps     40 471 kbps     01:25:43.600    31 556 kbps     01:25:43.480    28 733 kbps     01:26:03.920    118 226 bytes   529 430 bytes   01:25:13.240
17              1:30:21.120     0:04:23.800     23 863 kbps     34 324 kbps     01:30:28.040    31 275 kbps     01:30:56.120    30 966 kbps     01:30:52.120    119 314 bytes   488 235 bytes   01:30:27.680
18              1:34:44.920     0:07:32.479     24 880 kbps     39 726 kbps     01:36:51.120    31 204 kbps     01:38:23.240    29 123 kbps     01:40:40.200    124 399 bytes   541 320 bytes   01:36:51.200
19              1:42:17.400     0:08:18.680     23 551 kbps     43 027 kbps     01:43:03.080    31 711 kbps     01:42:44.480    30 979 kbps     01:50:21.360    117 757 bytes   587 371 bytes   01:43:03.800
20              1:50:36.080     0:12:54.440     25 701 kbps     40 079 kbps     01:50:54.760    31 728 kbps     01:52:59.640    31 113 kbps     02:03:05.240    128 514 bytes   445 322 bytes   01:50:54.840
STREAM DIAGNOSTICS:
File            PID             Type            Codec           Language                Seconds                 Bitrate                 Bytes           Packets
----            ---             ----            -----           --------                --------------          --------------          -------------   -----
00003.M2TS      4113 (0x1011)   0x1B            AVC                                     7410,400                24 714                  22 892 886 584  124 527 582
00003.M2TS      4352 (0x1100)   0x86            DTS-HD MA       rus (Russian)           7410,400                2 854                   2 643 586 608   15 522 428
00003.M2TS      4353 (0x1101)   0x81            AC3             rus (Russian)           7410,400                448                     414 989 568     2 315 790
00003.M2TS      4354 (0x1102)   0x80            LPCM            rus (Russian)           7410,400                1 546                   1 432 237 936   8 914 349
QUICK SUMMARY:
Disc Title: Кипелов Х лет – Крокус Сити Холл Blu rayDisc Size: 32 127 181 925 bytesProtection: AACSBD-Java: YesPlaylist: 01002.MPLSSize: 29 109 172 224 bytesLength: 2:03:30.520Total Bitrate: 31,42 MbpsVideo: MPEG-4 AVC Video / 24714 kbps / 1080i / 25 fps / 16:9 / High Profile 4.1Audio: Russian / DTS-HD Master Audio / 5.1 / 48 kHz / 2854 kbps / 16-bit (DTS Core: 5.1 / 48 kHz / 1509 kbps / 16-bit)Audio: Russian / Dolby Digital Audio / 5.1 / 48 kHz / 448 kbpsAudio: Russian / LPCM Audio / 2.0 / 48 kHz / 1536 kbps / 16-bit
********************PLAYLIST: 00004.MPLS********************
Total   Video
Title                                                           Codec   Length  Movie Size      Disc Size       Bitrate Bitrate Main Audio Track                          Secondary Audio Track
-----                                                           ------  ------- --------------  --------------  ------- ------- ------------------                        ---------------------
00004.MPLS                                                      AVC     0:11:03 2 671 060 992   32 127 181 925  32,20   29,00   LPCM 2.0 1536Kbps (48kHz/16-bit)
DISC INFO:
Disc Title:     Кипелов Х лет – Крокус Сити Холл Blu ray
Disc Size:      32 127 181 925 bytes
Protection:     AACS
BD-Java:        Yes
Extras:         50Hz Content
BDInfo:         0.5.8
PLAYLIST REPORT:
Name:                   00004.MPLS
Length:                 0:11:03.720 (h:m:s.ms)
Size:                   2 671 060 992 bytes
Total Bitrate:          32,20 Mbps
VIDEO:
Codec                   Bitrate             Description
-----                   -------             -----------
MPEG-4 AVC Video        29000 kbps          1080i / 25 fps / 16:9 / High Profile 4.1
AUDIO:
Codec                           Language        Bitrate         Description
-----                           --------        -------         -----------
LPCM Audio                      Russian         1536 kbps       2.0 / 48 kHz / 1536 kbps / 16-bit
FILES:
Name            Time In         Length          Size            Total Bitrate
----            -------         ------          ----            -------------
00004.M2TS      0:00:00.000     0:11:03.720     2 671 060 992   32 195
CHAPTERS:
Number          Time In         Length          Avg Video Rate  Max 1-Sec Rate  Max 1-Sec Time  Max 5-Sec Rate  Max 5-Sec Time  Max 10Sec Rate  Max 10Sec Time  Avg Frame Size  Max Frame Size  Max Frame Time
------          -------         ------          --------------  --------------  --------------  --------------  --------------  --------------  --------------  --------------  --------------  --------------
1               0:00:00.000     0:11:03.720     29 000 kbps     56 493 kbps     00:00:06.200    37 867 kbps     00:00:05.599    34 920 kbps     00:00:05.600    145 000 bytes   373 700 bytes   00:00:07.160
STREAM DIAGNOSTICS:
File            PID             Type            Codec           Language                Seconds                 Bitrate                 Bytes           Packets
----            ---             ----            -----           --------                --------------          --------------          -------------   -----
00004.M2TS      4113 (0x1011)   0x1B            AVC                                     663,600                 29 005                  2 405 988 756   13 085 791
00004.M2TS      4352 (0x1100)   0x80            LPCM            rus (Russian)           663,600                 1 543                   127 965 216     796 464
QUICK SUMMARY:
Disc Title: Кипелов Х лет – Крокус Сити Холл Blu rayDisc Size: 32 127 181 925 bytesProtection: AACSBD-Java: YesPlaylist: 00004.MPLSSize: 2 671 060 992 bytesLength: 0:11:03.720Total Bitrate: 32,20 MbpsVideo: MPEG-4 AVC Video / 29000 kbps / 1080i / 25 fps / 16:9 / High Profile 4.1Audio: Russian / LPCM Audio / 2.0 / 48 kHz / 1536 kbps / 16-bit
********************PLAYLIST: 01003.MPLS********************
Total   Video
Title                                                           Codec   Length  Movie Size      Disc Size       Bitrate Bitrate Main Audio Track                          Secondary Audio Track
-----                                                           ------  ------- --------------  --------------  ------- ------- ------------------                        ---------------------
01003.MPLS                                                      AVC     0:11:03 2 671 060 992   32 127 181 925  32,20   29,00   LPCM 2.0 1536Kbps (48kHz/16-bit)
DISC INFO:
Disc Title:     Кипелов Х лет – Крокус Сити Холл Blu ray
Disc Size:      32 127 181 925 bytes
Protection:     AACS
BD-Java:        Yes
Extras:         50Hz Content
BDInfo:         0.5.8
PLAYLIST REPORT:
Name:                   01003.MPLS
Length:                 0:11:03.720 (h:m:s.ms)
Size:                   2 671 060 992 bytes
Total Bitrate:          32,20 Mbps
VIDEO:
Codec                   Bitrate             Description
-----                   -------             -----------
MPEG-4 AVC Video        29000 kbps          1080i / 25 fps / 16:9 / High Profile 4.1
AUDIO:
Codec                           Language        Bitrate         Description
-----                           --------        -------         -----------
LPCM Audio                      Russian         1536 kbps       2.0 / 48 kHz / 1536 kbps / 16-bit
FILES:
Name            Time In         Length          Size            Total Bitrate
----            -------         ------          ----            -------------
00004.M2TS      0:00:00.000     0:11:03.720     2 671 060 992   32 195
CHAPTERS:
Number          Time In         Length          Avg Video Rate  Max 1-Sec Rate  Max 1-Sec Time  Max 5-Sec Rate  Max 5-Sec Time  Max 10Sec Rate  Max 10Sec Time  Avg Frame Size  Max Frame Size  Max Frame Time
------          -------         ------          --------------  --------------  --------------  --------------  --------------  --------------  --------------  --------------  --------------  --------------
1               0:00:00.000     0:11:03.720     29 000 kbps     56 493 kbps     00:00:06.200    37 867 kbps     00:00:05.599    34 920 kbps     00:00:05.600    145 000 bytes   373 700 bytes   00:00:07.160
STREAM DIAGNOSTICS:
File            PID             Type            Codec           Language                Seconds                 Bitrate                 Bytes           Packets
----            ---             ----            -----           --------                --------------          --------------          -------------   -----
00004.M2TS      4113 (0x1011)   0x1B            AVC                                     663,600                 29 005                  2 405 988 756   13 085 791
00004.M2TS      4352 (0x1100)   0x80            LPCM            rus (Russian)           663,600                 1 543                   127 965 216     796 464
QUICK SUMMARY:
Disc Title: Кипелов Х лет – Крокус Сити Холл Blu rayDisc Size: 32 127 181 925 bytesProtection: AACSBD-Java: YesPlaylist: 01003.MPLSSize: 2 671 060 992 bytesLength: 0:11:03.720Total Bitrate: 32,20 MbpsVideo: MPEG-4 AVC Video / 29000 kbps / 1080i / 25 fps / 16:9 / High Profile 4.1Audio: Russian / LPCM Audio / 2.0 / 48 kHz / 1536 kbps / 16-bit
********************PLAYLIST: 00001.MPLS********************
Total   Video
Title                                                           Codec   Length  Movie Size      Disc Size       Bitrate Bitrate Main Audio Track                          Secondary Audio Track
-----                                                           ------  ------- --------------  --------------  ------- ------- ------------------                        ---------------------
00001.MPLS                                                      AVC     0:02:06 339 695 616     32 127 181 925  21,57   18,82   LPCM 2.0 1536Kbps (48kHz/16-bit)
DISC INFO:
Disc Title:     Кипелов Х лет – Крокус Сити Холл Blu ray
Disc Size:      32 127 181 925 bytes
Protection:     AACS
BD-Java:        Yes
Extras:         50Hz Content
BDInfo:         0.5.8
PLAYLIST REPORT:
Name:                   00001.MPLS
Length:                 0:02:06.000 (h:m:s.ms)
Size:                   339 695 616 bytes
Total Bitrate:          21,57 Mbps
VIDEO:
Codec                   Bitrate             Description
-----                   -------             -----------
MPEG-4 AVC Video        18815 kbps          1080i / 25 fps / 16:9 / High Profile 4.1
AUDIO:
Codec                           Language        Bitrate         Description
-----                           --------        -------         -----------
LPCM Audio                      Russian         1536 kbps       2.0 / 48 kHz / 1536 kbps / 16-bit
FILES:
Name            Time In         Length          Size            Total Bitrate
----            -------         ------          ----            -------------
00001.M2TS      0:00:00.000     0:02:06.000     339 695 616     21 568
CHAPTERS:
Number          Time In         Length          Avg Video Rate  Max 1-Sec Rate  Max 1-Sec Time  Max 5-Sec Rate  Max 5-Sec Time  Max 10Sec Rate  Max 10Sec Time  Avg Frame Size  Max Frame Size  Max Frame Time
------          -------         ------          --------------  --------------  --------------  --------------  --------------  --------------  --------------  --------------  --------------  --------------
1               0:00:00.000     0:02:06.000     18 815 kbps     44 829 kbps     00:00:06.080    33 441 kbps     00:00:05.599    30 410 kbps     00:00:05.720    94 076 bytes    744 210 bytes   00:00:14.280
STREAM DIAGNOSTICS:
File            PID             Type            Codec           Language                Seconds                 Bitrate                 Bytes           Packets
----            ---             ----            -----           --------                --------------          --------------          -------------   -----
00001.M2TS      4113 (0x1011)   0x1B            AVC                                     125,880                 18 833                  296 338 964     1 612 421
00001.M2TS      4352 (0x1100)   0x80            LPCM            rus (Russian)           125,880                 1 544                   24 292 800      151 200
QUICK SUMMARY:
Disc Title: Кипелов Х лет – Крокус Сити Холл Blu rayDisc Size: 32 127 181 925 bytesProtection: AACSBD-Java: YesPlaylist: 00001.MPLSSize: 339 695 616 bytesLength: 0:02:06.000Total Bitrate: 21,57 MbpsVideo: MPEG-4 AVC Video / 18815 kbps / 1080i / 25 fps / 16:9 / High Profile 4.1Audio: Russian / LPCM Audio / 2.0 / 48 kHz / 1536 kbps / 16-bit
********************PLAYLIST: 01001.MPLS********************
Total   Video
Title                                                           Codec   Length  Movie Size      Disc Size       Bitrate Bitrate Main Audio Track                          Secondary Audio Track
-----                                                           ------  ------- --------------  --------------  ------- ------- ------------------                        ---------------------
01001.MPLS                                                      AVC     0:02:06 339 695 616     32 127 181 925  21,57   18,82   LPCM 2.0 1536Kbps (48kHz/16-bit)
DISC INFO:
Disc Title:     Кипелов Х лет – Крокус Сити Холл Blu ray
Disc Size:      32 127 181 925 bytes
Protection:     AACS
BD-Java:        Yes
Extras:         50Hz Content
BDInfo:         0.5.8
PLAYLIST REPORT:
Name:                   01001.MPLS
Length:                 0:02:06.000 (h:m:s.ms)
Size:                   339 695 616 bytes
Total Bitrate:          21,57 Mbps
VIDEO:
Codec                   Bitrate             Description
-----                   -------             -----------
MPEG-4 AVC Video        18815 kbps          1080i / 25 fps / 16:9 / High Profile 4.1
AUDIO:
Codec                           Language        Bitrate         Description
-----                           --------        -------         -----------
LPCM Audio                      Russian         1536 kbps       2.0 / 48 kHz / 1536 kbps / 16-bit
FILES:
Name            Time In         Length          Size            Total Bitrate
----            -------         ------          ----            -------------
00001.M2TS      0:00:00.000     0:02:06.000     339 695 616     21 568
CHAPTERS:
Number          Time In         Length          Avg Video Rate  Max 1-Sec Rate  Max 1-Sec Time  Max 5-Sec Rate  Max 5-Sec Time  Max 10Sec Rate  Max 10Sec Time  Avg Frame Size  Max Frame Size  Max Frame Time
------          -------         ------          --------------  --------------  --------------  --------------  --------------  --------------  --------------  --------------  --------------  --------------
1               0:00:00.000     0:00:09.559     19 804 kbps     44 829 kbps     00:00:06.080    30 295 kbps     00:00:04.519    0 kbps          00:00:00.000    98 608 bytes    536 177 bytes   00:00:08.520
2               0:00:09.559     0:01:56.440     18 734 kbps     34 304 kbps     00:00:13.760    27 775 kbps     00:00:11.359    26 348 kbps     00:00:11.040    93 702 bytes    744 210 bytes   00:00:14.280
STREAM DIAGNOSTICS:
File            PID             Type            Codec           Language                Seconds                 Bitrate                 Bytes           Packets
----            ---             ----            -----           --------                --------------          --------------          -------------   -----
00001.M2TS      4113 (0x1011)   0x1B            AVC                                     125,880                 18 833                  296 338 964     1 612 421
00001.M2TS      4352 (0x1100)   0x80            LPCM            rus (Russian)           125,880                 1 544                   24 292 800      151 200
QUICK SUMMARY:
Disc Title: Кипелов Х лет – Крокус Сити Холл Blu rayDisc Size: 32 127 181 925 bytesProtection: AACSBD-Java: YesPlaylist: 01001.MPLSSize: 339 695 616 bytesLength: 0:02:06.000Total Bitrate: 21,57 MbpsVideo: MPEG-4 AVC Video / 18815 kbps / 1080i / 25 fps / 16:9 / High Profile 4.1Audio: Russian / LPCM Audio / 2.0 / 48 kHz / 1536 kbps / 16-bit
[Профиль] [ЛС]

ADVOKAT69

Стаж: 1 год 7 месяцев

Сообщений: 1



Награды: Нет

Торрент-статистика

Создавать темы 26-Апр-2015 10:53 (спустя 8 месяцев 14 дней)

[Цитировать]

Спасибо большое концерт классный Я свободен звучит классно
[Профиль] [ЛС]

sergej644

Пол:

Стаж: 4 года 11 месяцев

Сообщений: 6045

Откуда: Soviet Union



Награды: Нет

Торрент-статистика

Создавать темы 29-Апр-2015 02:48 (спустя 2 дня 15 часов)

[Цитировать]

66560Спасибо большое концерт классный Я свободен звучит классно
Приятного просмотра!
[Профиль] [ЛС]

Создавать темы 13-Авг-2015 11:56 (спустя 3 месяца 14 дней)

Топик был перенесен из форума Музыка ( DVD, DVDrip, HD, HDRip Video) (Vinyl-Rip и Hand-Made) в форум Наши концерты
sergej644
 
Показать сообщения:    

Текущее время: Сегодня 11:55

Часовой пояс: GMT



Вы не можете начинать темы
Вы не можете отвечать на сообщения
Вы не можете редактировать свои сообщения
Вы не можете удалять свои сообщения
Вы не можете голосовать в опросах
Вы не можете прикреплять файлы к сообщениям
Вы не можете скачивать файлы