Кипелов - Нашествие 2015 (2015) WEBRip 720p | FilmRus

 
Автор Сообщение

sergej644 ®

Пол:

Стаж: 4 года 11 месяцев

Сообщений: 6040

Откуда: Soviet Union



Награды: Нет

Торрент-статистика

Создавать темы 06-Июл-2015 22:31

[Цитировать]

Информация о фильме
Название: Кипелов - Нашествие 2015
Год выхода: 2015
Жанр: Концерт
О фильме:
Выступление группы «Кипелов» на юбилейном XV фестивале «Нашествие», состоявшееся 5 июля 2015 года.
Страна: Россия
Продолжительность: 00:45:46
Файл
Качество: WEBRip 720p
Видео: MPEG-4 AVC, 3456 Кбит/с, 1280x720, 25 кадр/с
Звук: AC3, 2 ch, 192 Кбит/с

Треклист:

1. Intro + Здесь Куют Металл
2. Следуй За Мной!
3. Путь В Никуда
4. Грязь
5. Мечты
6. Беспечный Ангел
7. Герой Асфальта
8. Попурри: Встань, Страх Преодолей / Тореро / Воля И Разум

MediaInfo:

General
Unique ID : 223758567085950420845038153731014279136 (0xA856551C84A034AF9828D2AAC18A3FE0)
Format : Matroska
Format version : Version 2
File size : 1.17 GiB
Duration : 45mn 46s
Overall bit rate : 3 651 Kbps
Movie name : Кипелов - Нашествие-2015
Encoded date : UTC 2015-07-06 20:48:10
Writing application : DVDFab 9.1.6.8
Writing library : libebml v0.7.8 + libmatroska v0.8.1
Video #1
ID : 1
Format : AVC
Format/Info : Advanced Video Codec
Format profile : High@L4.1
Format settings, CABAC : Yes
Format settings, ReFrames : 2 frames
Codec ID : V_MPEG4/ISO/AVC
Duration : 45mn 46s
Bit rate : 3 456 Kbps
Width : 1 280 pixels
Height : 720 pixels
Display aspect ratio : 16:9
Frame rate mode : Constant
Frame rate : 25.000 fps
Color space : YUV
Chroma subsampling : 4:2:0
Bit depth : 8 bits
Scan type : Progressive
Bits/(Pixel*Frame) : 0.150
Stream size : 1.08 GiB (93%)
Writing library : x264 core 142
Encoding settings : cabac=1 / ref=1 / deblock=1:-1:-1 / analyse=0x3:0 / me=hex / subme=5 / psy=0 / mixed_ref=0 / me_range=16 / chroma_me=1 / trellis=0 / 8x8dct=1 / cqm=0 / deadzone=21,11 / fast_pskip=1 / chroma_qp_offset=0 / threads=4 / lookahead_threads=1 / sliced_threads=0 / nr=0 / decimate=1 / interlaced=0 / bluray_compat=0 / constrained_intra=0 / bframes=2 / b_pyramid=0 / b_adapt=1 / b_bias=0 / direct=1 / weightb=1 / open_gop=0 / weightp=0 / keyint=24 / keyint_min=13 / scenecut=40 / intra_refresh=0 / rc=2pass / mbtree=0 / bitrate=3456 / ratetol=1.0 / qcomp=0.60 / qpmin=0 / qpmax=69 / qpstep=4 / cplxblur=20.0 / qblur=0.5 / ip_ratio=1.40 / pb_ratio=1.30 / aq=1:1.00
Default : Yes
Forced : No
Color primaries : BT.709
Transfer characteristics : BT.709
Matrix coefficients : BT.709
Audio #2
ID : 2
Format : AC-3
Format/Info : Audio Coding 3
Mode extension : CM (complete main)
Format settings, Endianness : Big
Codec ID : A_AC3
Duration : 45mn 46s
Bit rate mode : Constant
Bit rate : 192 Kbps
Channel(s) : 2 channels
Channel positions : Front: L R
Sampling rate : 48.0 KHz
Bit depth : 16 bits
Compression mode : Lossy
Stream size : 62.9 MiB (5%)
Default : Yes
Forced : No

Дополнительно:

Запись выступления "Кипелов" с трансляции в интернет и картинка не очень четкая и иногда просматривается гребенка в изображении. Относительно качества сделал все что мог, всем приятного просмотра.

Скриншоты

Релиз от: by music80
[Профиль] [ЛС]

Создавать темы 13-Авг-2015 12:04 (спустя 1 месяц 6 дней)

Топик был перенесен из форума Концерты в форум Наши концерты
sergej644
 
Показать сообщения:    

Текущее время: Сегодня 20:37

Часовой пояс: GMT



Вы не можете начинать темы
Вы не можете отвечать на сообщения
Вы не можете редактировать свои сообщения
Вы не можете удалять свои сообщения
Вы не можете голосовать в опросах
Вы не можете прикреплять файлы к сообщениям
Вы не можете скачивать файлы