(Rock)Кино (Виктор Цой) - Южно-Корейские релизы (5`CD) - 1991-2001, ALAC (tracks+.cue), lossless

 
Автор Сообщение

sergej644 ®

Пол:

Стаж: 4 года 11 месяцев

Сообщений: 6044

Откуда: Soviet Union



Награды: Нет

Торрент-статистика

Создавать темы 12-Июн-2015 08:18

[Цитировать]

Кино (Виктор Цой) / Южно-Корейские релизы
-Жанр: Rock
Страна-производитель дисков: Южная Корея
Год издания: 1991-2001
Страна: СССР
Аудио кодек: ALAC (*.m4a)
Тип рипа: tracks
Программа-конвертер: CueTools
Битрейт аудио: lossles
Продолжительность: 3 ч. 58 мин.
Источники: mark8lsc,OlexanderKi
Программа-риповщик: CueTools (QuickTime Apple Lossless)
Вшитые тексты: добавлены
Наличие сканов в содержимом раздачи: *.jpeg
Обложки: вшиты-

1991 "Это не июъвь... (Golden album)" (Yedang Entertainment Co. Ltd – YDCD-103)

Треклист:
01.Это не Июъ7вь / ETO-NE-LYUBOVY (It's Not Love) 3:32
02.Верь мне / VERY-MINE (Believe Me) 5:36
03.Город / GOROD (City) 3:46
04.Музъытька волн / MUZIKA-VOLN (Music Of Wabes) 4:10
05.Я оъявияю / YA-OBYAVLYAYU (Zone Without Atomic) 2:25
06.Саша / SASHA (Sasha) 3:18
07.Весна / VESNA (Spring) 2:02
08.Уходи / UHOJI (Go Away) 4:39
09.Рядом со мной / RYADOM-SO-MNOY (Near Me) 3:53
10.Просишь / PROSISHY (Stand Up! This Is Love) 3:36
11.Дети Прохоных Дворов / DETI-PTOHODNIH-DVOROV (D.P.D) 1:57
Продолжительность: 38:55

Отчёт ЕАС

Exact Audio Copy V1.0 beta 3 from 29. August 2011
Отчёт EAC об извлечении, выполненном 24. ноября 2012, 21:06
Kino (Victor Choi) / это не июъвь... Golden album
Дисковод: TSSTcorpCDDVDW SN-S083C   Adapter: 5  ID: 0
Режим чтения                 : Достоверность
Использование точного потока : Да
Отключение кэша аудио        : Да
Использование указателей C2  : Нет
Коррекция смещения при чтении                     : 6
Способность читать области Lead-in и Lead-out     : Да
Заполнение пропущенных сэмплов тишиной            : Да
Удаление блоков с тишиной в начале и конце        : Нет
При вычислениях CRC использовались нулевые сэмплы : Да
Интерфейс                                         : Встроенный Win32-интерфейс для Win NT/2000
Выходной формат          : Пользовательский кодировщик
Выбранный битрейт        : 128 kBit/s
Качество                 : Высокий
Добавление ID3-тега      : Нет
Утилита сжатия           : C:\Program Files (x86)\FLAC\flac.exe
Дополнительные параметры : -V -8 -T "Date=%year%" -T "Genre=%genre%" %source%
TOC извлечённого CD
     Трек |   Старт  | Длительность | Начальный сектор | Конечный сектор
    ---------------------------------------------------------------------
       1  |  0:00.33 |    3:31.45   |          33      |      15902
       2  |  3:32.03 |    5:35.65   |       15903      |      41092
       3  |  9:07.68 |    3:46.12   |       41093      |      58054
       4  | 12:54.05 |    4:09.68   |       58055      |      76797
       5  | 17:03.73 |    2:24.72   |       76798      |      87669
       6  | 19:28.70 |    3:18.15   |       87670      |     102534
       7  | 22:47.10 |    2:01.60   |      102535      |     111669
       8  | 24:48.70 |    4:39.25   |      111670      |     132619
       9  | 29:28.20 |    3:53.13   |      132620      |     150107
      10  | 33:21.33 |    3:35.67   |      150108      |     166299
      11  | 36:57.25 |    1:57.20   |      166300      |     175094
Характеристики диапазона извлечения и сообщения об ошибках
Выбранный диапазон
     Имя файла C:\Users\Н\Music\Converted\1\Kino (Victor Choi) - это не июъвь... Golden album.wav
     Пиковый уровень 100.0 %
     Скорость извлечения 1.8 X
     Качество диапазона 99.9 %
     CRC копии 128398AC
     Копирование... OK
Ошибок не произошло
Конец отчёта
==== Контрольная сумма отчёта DB3C582D14CF2064107C94534876A9B19A112E81FCADF5F4A65990F43E988296 ====

Содержание индексной карты (.CUE)

REM GENRE "Rock"
REM DATE 1991
REM DISCID 83091E0B
REM COMMENT "ExactAudioCopy v1.0b3"
PERFORMER "Кино"
TITLE "1985 - Это не июъвь... (Golden album) (1991, Yedang Entertainment Co. Ltd - YDCD-103)"
FILE "01. Это не Июъ7вь _ ETO-NE-LYUBOVY (It's Not Love).m4a" WAVE
  TRACK 01 AUDIO
    TITLE "Это не Июъ7вь / ETO-NE-LYUBOVY (It's Not Love)"
    PERFORMER "Кино"
    PREGAP 00:00:33
    INDEX 01 00:00:00
  TRACK 02 AUDIO
    TITLE "Верь мне / VERY-MINE (Believe Me)"
    PERFORMER "Кино"
    INDEX 00 03:28:70
FILE "02. Верь мне _ VERY-MINE (Believe Me).m4a" WAVE
    INDEX 01 00:00:00
  TRACK 03 AUDIO
    TITLE "Город / GOROD (City)"
    PERFORMER "Кино"
    INDEX 00 05:33:15
FILE "03. Город _ GOROD (City).m4a" WAVE
    INDEX 01 00:00:00
  TRACK 04 AUDIO
    TITLE "Музъытька волн / MUZIKA-VOLN (Music Of Wabes)"
    PERFORMER "Кино"
    INDEX 00 03:43:37
FILE "04. Музъытька волн _ MUZIKA-VOLN (Music Of Wabes).m4a" WAVE
    INDEX 01 00:00:00
  TRACK 05 AUDIO
    TITLE "Я оъявияю / YA-OBYAVLYAYU (Zone Without Atomic)"
    PERFORMER "Кино"
    INDEX 00 04:07:18
FILE "05. Я оъявияю _ YA-OBYAVLYAYU (Zone Without Atomic).m4a" WAVE
    INDEX 01 00:00:00
  TRACK 06 AUDIO
    TITLE "Саша / SASHA (Sasha)"
    PERFORMER "Кино"
    INDEX 00 02:22:22
FILE "06. Саша _ SASHA (Sasha).m4a" WAVE
    INDEX 01 00:00:00
  TRACK 07 AUDIO
    TITLE "Весна / VESNA (Spring)"
    PERFORMER "Кино"
    INDEX 00 03:15:40
FILE "07. Весна _ VESNA (Spring).m4a" WAVE
    INDEX 01 00:00:00
  TRACK 08 AUDIO
    TITLE "Уходи / UHOJI (Go Away)"
    PERFORMER "Кино"
    INDEX 00 01:59:10
FILE "08. Уходи _ UHOJI (Go Away).m4a" WAVE
    INDEX 01 00:00:00
  TRACK 09 AUDIO
    TITLE "Рядом со мной / RYADOM-SO-MNOY (Near Me)"
    PERFORMER "Кино"
    INDEX 00 04:36:50
FILE "09. Рядом со мной _ RYADOM-SO-MNOY (Near Me).m4a" WAVE
    INDEX 01 00:00:00
  TRACK 10 AUDIO
    TITLE "Просишь / PROSISHY (Stand Up! This Is Love)"
    PERFORMER "Кино"
    INDEX 00 03:50:38
FILE "10. Просишь _ PROSISHY (Stand Up! This Is Love).m4a" WAVE
    INDEX 01 00:00:00
  TRACK 11 AUDIO
    TITLE "Дети Прохоных Дворов / DETI-PTOHODNIH-DVOROV (D.P.D)"
    PERFORMER "Кино"
    INDEX 00 03:33:17
FILE "11. Дети Прохоных Дворов _ DETI-PTOHODNIH-DVOROV (D.P.D).m4a" WAVE
    INDEX 01 00:00:00

2001 "Change" (Ene Media – SCP-003PBK)

Треклист:
01.Лето (Summer) 5:56
02.Красно-жёлтые дни (Golden Days) 5:51
03.Нам с тобой (With You) 4:50
04.Звезда (Star) 4:33
05.Мама (Mother) 3:50
06.В наших глазах (In Our Eyes) 3:49
07.Следи за собой (Watch Yourself) 5:00
08.Хочу перемен (Change) 4:57
09.Война (War) 4:04
10.Группа крови (Blood Type) 4:00
11.Кукушка (Cuckoo) 6:41
12.Муравейник (Ant Hill) 5:17
Продолжительность: 58:48

Отчёт ЕАС

Exact Audio Copy V0.99 prebeta 4 from 23. January 2008
Отчёт EAC об извлечении, выполненном 17. ноября 2012, 17:26
Virtor Choi / Change
Дисковод: _NEC    DVD_RW ND-4571A   Adapter: 0  ID: 1
Режим чтения                 : Достоверность
Использование точного потока : Да
Отключение кэша аудио        : Да
Использование указателей C2  : Нет
Коррекция смещения при чтении                     : 48
Способность читать области Lead-in и Lead-out     : Нет
Заполнение пропущенных сэмплов тишиной            : Да
Удаление блоков с тишиной в начале и конце        : Нет
При вычислениях CRC использовались нулевые сэмплы : Да
Интерфейс                                         : Установленный внешний ASPI-интерфейс
Выходной формат : Внутренние WAV-операции
Формат сэмплов  : 44.100 Гц; 16 бит; стерео
TOC извлечённого CD
     Трек |   Старт  | Длительность | Начальный сектор | Конечный сектор
    ---------------------------------------------------------------------
       1  |  0:00.00 |    5:56.27   |           0      |      26726
       2  |  5:56.27 |    5:51.10   |       26727      |      53061
       3  | 11:47.37 |    4:50.25   |       53062      |      74836
       4  | 16:37.62 |    4:32.40   |       74837      |      95276
       5  | 21:10.27 |    3:50.35   |       95277      |     112561
       6  | 25:00.62 |    3:48.38   |      112562      |     129699
       7  | 28:49.25 |    4:59.47   |      129700      |     152171
       8  | 33:48.72 |    4:56.60   |      152172      |     174431
       9  | 38:45.57 |    4:04.30   |      174432      |     192761
      10  | 42:50.12 |    3:59.68   |      192762      |     210754
      11  | 46:50.05 |    6:40.52   |      210755      |     240806
      12  | 53:30.57 |    5:17.10   |      240807      |     264591
Характеристики диапазона извлечения и сообщения об ошибках
Выбранный диапазон
     Имя файла D:\Music\Victor Choi\1995 - Change (remaster 2001)\Virtor Choi - Change.wav
     Пиковый уровень 96.4 %
     Качество диапазона 100.0 %
     CRC копии 8428FBA1
     Копирование... OK
Ошибок не произошло
AccurateRip: сводка
Трек  1  нет в базе данных
Трек  2  нет в базе данных
Трек  3  нет в базе данных
Трек  4  нет в базе данных
Трек  5  нет в базе данных
Трек  6  нет в базе данных
Трек  7  нет в базе данных
Трек  8  нет в базе данных
Трек  9  нет в базе данных
Трек 10  нет в базе данных
Трек 11  нет в базе данных
Трек 12  нет в базе данных
Ни одного трека нет в базе AccurateRip
Конец отчёта

Содержание индексной карты (.CUE)

REM GENRE "Rock"
REM DATE 2001
REM DISCID 950DC70C
REM COMMENT "ExactAudioCopy v0.99pb4"
PERFORMER "Virtor Choi"
TITLE "Change (2001, South Korea, SCP-003PBK)"
FILE "01. Лето (Summer).m4a" WAVE
  TRACK 01 AUDIO
    TITLE "Лето (Summer)"
    PERFORMER "Virtor Choi"
    INDEX 01 00:00:00
  TRACK 02 AUDIO
    TITLE "Красно-жёлтые дни (Golden Days)"
    PERFORMER "Virtor Choi"
    INDEX 00 05:54:40
FILE "02. Красно-жёлтые дни (Golden Days).m4a" WAVE
    INDEX 01 00:00:00
  TRACK 03 AUDIO
    TITLE "Нам с тобой (With You)"
    PERFORMER "Virtor Choi"
    INDEX 00 05:49:35
FILE "03. Нам с тобой (With You).m4a" WAVE
    INDEX 01 00:00:00
  TRACK 04 AUDIO
    TITLE "Звезда (Star)"
    PERFORMER "Virtor Choi"
    INDEX 00 04:48:53
FILE "04. Звезда (Star).m4a" WAVE
    INDEX 01 00:00:00
  TRACK 05 AUDIO
    TITLE "Мама (Mother)"
    PERFORMER "Virtor Choi"
    INDEX 00 04:30:70
FILE "05. Мама (Mother).m4a" WAVE
    INDEX 01 00:00:00
  TRACK 06 AUDIO
    TITLE "В наших глазах (In Our Eyes)"
    PERFORMER "Virtor Choi"
    INDEX 00 03:48:63
FILE "06. В наших глазах (In Our Eyes).m4a" WAVE
    INDEX 01 00:00:00
  TRACK 07 AUDIO
    TITLE "Следи за собой (Watch Yourself)"
    PERFORMER "Virtor Choi"
    INDEX 00 03:47:13
FILE "07. Следи за собой (Watch Yourself).m4a" WAVE
    INDEX 01 00:00:00
  TRACK 08 AUDIO
    TITLE "Хочу перемен (Change)"
    PERFORMER "Virtor Choi"
    INDEX 00 04:58:12
FILE "08. Хочу перемен (Change).m4a" WAVE
    INDEX 01 00:00:00
  TRACK 09 AUDIO
    TITLE "Война (War)"
    PERFORMER "Virtor Choi"
    INDEX 00 04:55:03
FILE "09. Война (War).m4a" WAVE
    INDEX 01 00:00:00
  TRACK 10 AUDIO
    TITLE "Группа крови (Blood Type)"
    PERFORMER "Virtor Choi"
    INDEX 00 04:02:40
FILE "10. Группа крови (Blood Type).m4a" WAVE
    INDEX 01 00:00:00
  TRACK 11 AUDIO
    TITLE "Кукушка (Cuckoo)"
    PERFORMER "Virtor Choi"
    INDEX 00 03:58:35
FILE "11. Кукушка (Cuckoo).m4a" WAVE
    INDEX 01 00:00:00
  TRACK 12 AUDIO
    TITLE "Муравейник (Ant Hill)"
    PERFORMER "Virtor Choi"
    INDEX 00 06:38:37
FILE "12. Муравейник (Ant Hill).m4a" WAVE
    INDEX 01 00:00:00

2001 "The Last Hero" (Ene Media – SPC-002PBK)

Треклист:
01.Последний герой (The Last Hero) 2:56
02.Печаль (Sorrow) 5:12
03.Восьмиклассница (8th Grade Girl) 2:48
04.Дерево (Tree) 1:46
04.Группа крови (Bloodtype) 4:48
05.Легенда (Legend) 4:11
06.Закрой за мной дверь (Close The Door) 4:20
08.Игра (Play) 5:04
09.Мои друзья (My Friends) 4:30
10.Дождь для нас (The Rain For Us) 3:21
11.Мама, мы все сошли с ума (Mama, We Are All Critically Ill) 4:12
12.Троллейбус (Trolley Bus) - на самом деле "Электричка" 4:52
13.Когда твоя девушка (When She Is Angry) 4:23
14.Спокойной ночи (Good Night) 6:28
Продолжительность: 58:51

Отчёт ЕАС

Exact Audio Copy V0.99 prebeta 4 from 23. January 2008
Отчёт EAC об извлечении, выполненном 17. ноября 2012, 17:56
Knho (Victor Choi) / The Last Hero
Дисковод: _NEC    DVD_RW ND-4571A   Adapter: 0  ID: 1
Режим чтения                 : Достоверность
Использование точного потока : Да
Отключение кэша аудио        : Да
Использование указателей C2  : Нет
Коррекция смещения при чтении                     : 48
Способность читать области Lead-in и Lead-out     : Нет
Заполнение пропущенных сэмплов тишиной            : Да
Удаление блоков с тишиной в начале и конце        : Нет
При вычислениях CRC использовались нулевые сэмплы : Да
Интерфейс                                         : Установленный внешний ASPI-интерфейс
Выходной формат : Внутренние WAV-операции
Формат сэмплов  : 44.100 Гц; 16 бит; стерео
TOC извлечённого CD
     Трек |   Старт  | Длительность | Начальный сектор | Конечный сектор
    ---------------------------------------------------------------------
       1  |  0:00.00 |    2:56.30   |           0      |      13229
       2  |  2:56.30 |    5:12.25   |       13230      |      36654
       3  |  8:08.55 |    2:48.09   |       36655      |      49263
       4  | 10:56.64 |    1:45.51   |       49264      |      57189
       5  | 12:42.40 |    4:47.72   |       57190      |      78786
       6  | 17:30.37 |    4:10.48   |       78787      |      97584
       7  | 21:41.10 |    4:19.67   |       97585      |     117076
       8  | 26:01.02 |    5:03.58   |      117077      |     139859
       9  | 31:04.60 |    4:29.72   |      139860      |     160106
      10  | 35:34.57 |    3:21.00   |      160107      |     175181
      11  | 38:55.57 |    4:11.60   |      175182      |     194066
      12  | 43:07.42 |    4:52.23   |      194067      |     215989
      13  | 47:59.65 |    4:22.57   |      215990      |     235696
      14  | 52:22.47 |    6:28.20   |      235697      |     264816
Характеристики диапазона извлечения и сообщения об ошибках
Выбранный диапазон
     Имя файла D:\Music\Victor Choi\1995 - The Last Hero (remaster 2001)\Knho (Victor Choi) - The Last Hero.wav
     Пиковый уровень 100.0 %
     Качество диапазона 100.0 %
     CRC копии E47B1FF1
     Копирование... OK
Ошибок не произошло
AccurateRip: сводка
Трек  1  точное извлечение (доверие 1)  [F328981E]
Трек  2  точное извлечение (доверие 1)  [7E359D88]
Трек  3  точное извлечение (доверие 1)  [088AC838]
Трек  4  точное извлечение (доверие 1)  [AB0535A2]
Трек  5  точное извлечение (доверие 1)  [9126ABB6]
Трек  6  точное извлечение (доверие 1)  [B7BCF6F6]
Трек  7  точное извлечение (доверие 1)  [082B5885]
Трек  8  точное извлечение (доверие 1)  [C4A02232]
Трек  9  точное извлечение (доверие 1)  [3B40CDF4]
Трек 10  точное извлечение (доверие 1)  [38F62F63]
Трек 11  точное извлечение (доверие 1)  [5F279DA5]
Трек 12  точное извлечение (доверие 1)  [8A76C5A9]
Трек 13  точное извлечение (доверие 1)  [C2C2A102]
Трек 14  точное извлечение (доверие 1)  [AFC25D1D]
Все треки извлечены точно
Конец отчёта

Содержание индексной карты (.CUE)

REM GENRE "Rock"
REM DATE 2001
REM DISCID C80DCA0E
REM COMMENT "ExactAudioCopy v0.99pb4"
PERFORMER "Кино"
TITLE "The Last Hero (2001, South Korea , SPC-002PBK)"
FILE "01. Последний герой (The Last Hero).m4a" WAVE
  TRACK 01 AUDIO
    TITLE "Последний герой (The Last Hero)"
    PERFORMER "Кино"
    INDEX 01 00:00:00
  TRACK 02 AUDIO
    TITLE "Печаль (Sorrow)"
    PERFORMER "Кино"
    INDEX 00 02:53:65
FILE "02. Печаль (Sorrow).m4a" WAVE
    INDEX 01 00:00:00
  TRACK 03 AUDIO
    TITLE "Восьмиклассница (8th Grade Girl)"
    PERFORMER "Кино"
    INDEX 00 05:09:57
FILE "03. Восьмиклассница (8th Grade Girl).m4a" WAVE
    INDEX 01 00:00:00
  TRACK 04 AUDIO
    TITLE "Дерево (Tree)"
    PERFORMER "Кино"
    INDEX 00 02:45:45
FILE "04. Дерево (Tree).m4a" WAVE
    INDEX 01 00:00:00
  TRACK 05 AUDIO
    TITLE "Группа крови (Bloodtype)"
    PERFORMER "Кино"
    INDEX 00 01:43:11
FILE "05. Группа крови (Bloodtype).m4a" WAVE
    INDEX 01 00:00:00
  TRACK 06 AUDIO
    TITLE "Легенда (Legend)"
    PERFORMER "Кино"
    INDEX 00 04:45:30
FILE "06. Легенда (Legend).m4a" WAVE
    INDEX 01 00:00:00
  TRACK 07 AUDIO
    TITLE "Закрой за мной дверь (Close The Door)"
    PERFORMER "Кино"
    INDEX 00 04:08:05
FILE "07. Закрой за мной дверь (Close The Door).m4a" WAVE
    INDEX 01 00:00:00
  TRACK 08 AUDIO
    TITLE "Игра (Play)"
    PERFORMER "Кино"
    INDEX 00 04:17:27
FILE "08. Игра (Play).m4a" WAVE
    INDEX 01 00:00:00
  TRACK 09 AUDIO
    TITLE "Мои друзья (My Friends)"
    PERFORMER "Кино"
    INDEX 00 05:01:15
FILE "09. Мои друзья (My Friends).m4a" WAVE
    INDEX 01 00:00:00
  TRACK 10 AUDIO
    TITLE "Дождь для нас (The Rain For Us)"
    PERFORMER "Knho (Victor Choi)"
    INDEX 00 04:27:32
FILE "10. Дождь для нас (The Rain For Us).m4a" WAVE
    INDEX 01 00:00:00
  TRACK 11 AUDIO
    TITLE "Мама, мы все сошли с ума (Mama, We Are All Critically Ill)"
    PERFORMER "Кино"
    INDEX 00 03:18:35
FILE "11. Мама, мы все сошли с ума (Mama, We Are All Critically Ill).m4a" WAVE
    INDEX 01 00:00:00
  TRACK 12 AUDIO
    TITLE "Троллейбус (Trolley Bus)"
    PERFORMER "Кино"
    INDEX 00 04:09:20
FILE "12. Троллейбус (Trolley Bus).m4a" WAVE
    INDEX 01 00:00:00
  TRACK 13 AUDIO
    TITLE "Когда твоя девушка (When She Is Angry)"
    PERFORMER "Кино"
    INDEX 00 04:49:55
FILE "13. Когда твоя девушка (When She Is Angry).m4a" WAVE
    INDEX 01 00:00:00
  TRACK 14 AUDIO
    TITLE "Спокойной ночи (Good Night)"
    PERFORMER "Кино"
    INDEX 00 04:20:17
FILE "14. Спокойной ночи (Good Night).m4a" WAVE
    INDEX 01 00:00:00

2001 "Чёрный Альбом" (Yedang Entertainment Company – YDCD-534)

Треклист:
01.Кончится Лето (Summer) 5:57
02.Красно-Жёлтые Дни (Red & Yellow Days) 5:52
03.Нам С Тобой (To You And Me) 4:50
04.Звезда (Star) 4:31
05.Кукушка (A Cuckoo) 6:41
06.Когда Твоя Девушка Больна (When Your Love Is Sick) 4:21
07.Муравейник (Ants) 5:18
08.Следи За Собой (Self Communion) 4:57
Продолжительность: 42:26

Отчёт ЕАС

Exact Audio Copy V0.99 prebeta 4 from 23. January 2008
Отчёт EAC об извлечении, выполненном 11. июля 2014, 18:00
Victor Choi / Black Album
Дисковод: SONY    CD-RW  CRX225E   Adapter: 2  ID: 0
Режим чтения                 : Достоверность
Использование точного потока : Да
Отключение кэша аудио        : Да
Использование указателей C2  : Нет
Коррекция смещения при чтении                     : 6
Способность читать области Lead-in и Lead-out     : Нет
Заполнение пропущенных сэмплов тишиной            : Да
Удаление блоков с тишиной в начале и конце        : Нет
При вычислениях CRC использовались нулевые сэмплы : Да
Интерфейс                                         : Встроенный Win32-интерфейс для Win NT/2000
Выходной формат : Внутренние WAV-операции
Формат сэмплов  : 44.100 Гц; 16 бит; стерео
TOC извлечённого CD
     Трек |   Старт  | Длительность | Начальный сектор | Конечный сектор
    ---------------------------------------------------------------------
       1  |  0:00.00 |    5:57.01   |           0      |      26775
       2  |  5:57.01 |    5:51.40   |       26776      |      53140
       3  | 11:48.41 |    4:50.04   |       53141      |      74894
       4  | 16:38.45 |    4:30.53   |       74895      |      95197
       5  | 21:09.23 |    6:40.47   |       95198      |     125244
       6  | 27:49.70 |    4:20.53   |      125245      |     144797
       7  | 32:10.48 |    5:18.27   |      144798      |     168674
       8  | 37:29.00 |    4:56.71   |      168675      |     190945
Характеристики диапазона извлечения и сообщения об ошибках
Выбранный диапазон
     Имя файла C:\Торрент\Victor Choi - Black Album.wav
     Пиковый уровень 100.0 %
     Качество диапазона 99.9 %
     CRC копии 0B3FA1A1
     Копирование... OK
Ошибок не произошло
Конец отчёта

Содержание индексной карты (.CUE)

REM GENRE "Rock"
REM DATE 2001
REM DISCID 4F09F108
REM COMMENT "ExactAudioCopy v0.99pb4"
PERFORMER "Victor Choi"
TITLE "Чёрный Альбом (2001, South Korea, YDCD-534)"
FILE "01. Кончится Лето (Summer).m4a" WAVE
  TRACK 01 AUDIO
    TITLE "Кончится Лето (Summer)"
    PERFORMER "Victor Choi"
    INDEX 01 00:00:00
  TRACK 02 AUDIO
    TITLE "Красно-Жёлтые Дни (Red & Yellow Days)"
    PERFORMER "Victor Choi"
    INDEX 00 05:55:31
FILE "02. Красно-Жёлтые Дни (Red & Yellow Days).m4a" WAVE
    INDEX 01 00:00:00
  TRACK 03 AUDIO
    TITLE "Нам С Тобой (To You And Me)"
    PERFORMER "Victor Choi"
    INDEX 00 05:49:70
FILE "03. Нам С Тобой (To You And Me).m4a" WAVE
    INDEX 01 00:00:00
  TRACK 04 AUDIO
    TITLE "Звезда (Star)"
    PERFORMER "Victor Choi"
    INDEX 00 04:48:35
FILE "04. Звезда (Star).m4a" WAVE
    INDEX 01 00:00:00
  TRACK 05 AUDIO
    TITLE "Кукушка (A Cuckoo)"
    PERFORMER "Victor Choi"
    INDEX 00 04:29:09
FILE "05. Кукушка (A Cuckoo).m4a" WAVE
    INDEX 01 00:00:00
  TRACK 06 AUDIO
    TITLE "Когда Твоя Девушка Больна (When Your Love Is Sick)"
    PERFORMER "Victor Choi"
    INDEX 00 06:39:04
FILE "06. Когда Твоя Девушка Больна (When Your Love Is Sick).m4a" WAVE
    INDEX 01 00:00:00
  TRACK 07 AUDIO
    TITLE "Муравейник (Ants)"
    PERFORMER "Victor Choi"
    INDEX 00 04:19:10
FILE "07. Муравейник (Ants).m4a" WAVE
    INDEX 01 00:00:00
  TRACK 08 AUDIO
    TITLE "Следи За Собой (Self Communion)"
    PERFORMER "Victor Choi"
    INDEX 00 05:16:57
FILE "08. Следи За Собой (Self Communion).m4a" WAVE
    INDEX 01 00:00:00

2001 "Золотой Альбом" (Yedang Entertainment Company – YDCD-534)

Треклист:
01.Это Не Любовь (It's Not Love) 3:30
02.Верь Мне (Believe Me) 5:32
03.Город (City) 3:44
04.Музыка Волн (Music Of Waves) 4:09
05.Я Обьявляю Свой Дом (Zone Without Atomic) 2:23
06.Саша (Sasha) 3:17
07.Весна (Spring) 2:00
08.Уходи (Go Away) 4:36
09.Рядом Со Мной (Near Me) 3:51
10.Проснись (Stand Up, This Is Love) 3:32
11.Дети Проходных Дворов (D.P.D.) 1:54
Продолжительность: 38:30

Отчёт ЕАС

Exact Audio Copy V0.99 prebeta 4 from 23. January 2008
Отчёт EAC об извлечении, выполненном 11. июля 2014, 18:09
Victor Choi / Golden Album
Дисковод: SONY    CD-RW  CRX225E   Adapter: 2  ID: 0
Режим чтения                 : Достоверность
Использование точного потока : Да
Отключение кэша аудио        : Да
Использование указателей C2  : Нет
Коррекция смещения при чтении                     : 6
Способность читать области Lead-in и Lead-out     : Нет
Заполнение пропущенных сэмплов тишиной            : Да
Удаление блоков с тишиной в начале и конце        : Нет
При вычислениях CRC использовались нулевые сэмплы : Да
Интерфейс                                         : Встроенный Win32-интерфейс для Win NT/2000
Выходной формат : Внутренние WAV-операции
Формат сэмплов  : 44.100 Гц; 16 бит; стерео
TOC извлечённого CD
     Трек |   Старт  | Длительность | Начальный сектор | Конечный сектор
    ---------------------------------------------------------------------
       1  |  0:00.00 |    3:29.47   |           0      |      15721
       2  |  3:29.47 |    5:31.50   |       15722      |      40596
       3  |  9:01.22 |    3:44.28   |       40597      |      57424
       4  | 12:45.50 |    4:08.61   |       57425      |      76085
       5  | 16:54.36 |    2:23.28   |       76086      |      86838
       6  | 19:17.64 |    3:17.37   |       86839      |     101650
       7  | 22:35.26 |    2:00.13   |      101651      |     110663
       8  | 24:35.39 |    4:36.32   |      110664      |     131395
       9  | 29:11.71 |    3:51.34   |      131396      |     148754
      10  | 33:03.30 |    3:32.35   |      148755      |     164689
      11  | 36:35.65 |    1:53.57   |      164690      |     173221
Характеристики диапазона извлечения и сообщения об ошибках
Выбранный диапазон
     Имя файла C:\Торрент\Victor Choi - Golden Album.wav
     Пиковый уровень 100.0 %
     Качество диапазона 100.0 %
     CRC копии 3557B9C1
     Копирование... OK
Ошибок не произошло
Конец отчёта

Содержание индексной карты (.CUE)

REM GENRE "Rock"
REM DATE 2001
REM DISCID 9B09050B
REM COMMENT "ExactAudioCopy v0.99pb4"
PERFORMER "Victor Choi"
TITLE "Золотой Альбом (2001, South Korea, YDCD-534)"
FILE "01. Это Не Любовь (It's Not Love).m4a" WAVE
  TRACK 01 AUDIO
    TITLE "Это Не Любовь (It's Not Love)"
    PERFORMER "Victor Choi"
    INDEX 01 00:00:00
  TRACK 02 AUDIO
    TITLE "Верь Мне (Believe Me)"
    PERFORMER "Victor Choi"
    INDEX 00 03:28:02
FILE "02. Верь Мне (Believe Me).m4a" WAVE
    INDEX 01 00:00:00
  TRACK 03 AUDIO
    TITLE "Город (City)"
    PERFORMER "Victor Choi"
    INDEX 00 05:30:05
FILE "03. Город (City).m4a" WAVE
    INDEX 01 00:00:00
  TRACK 04 AUDIO
    TITLE "Музыка Волн (Music Of Waves)"
    PERFORMER "Victor Choi"
    INDEX 00 03:42:58
FILE "04. Музыка Волн (Music Of Waves).m4a" WAVE
    INDEX 01 00:00:00
  TRACK 05 AUDIO
    TITLE "Я Обьявляю Свой Дом (Zone Without Atomic)"
    PERFORMER "Victor Choi"
    INDEX 00 04:07:16
FILE "05. Я Обьявляю Свой Дом (Zone Without Atomic).m4a" WAVE
    INDEX 01 00:00:00
  TRACK 06 AUDIO
    TITLE "Саша (Sasha)"
    PERFORMER "Victor Choi"
    INDEX 00 02:21:58
FILE "06. Саша (Sasha).m4a" WAVE
    INDEX 01 00:00:00
  TRACK 07 AUDIO
    TITLE "Весна (Spring)"
    PERFORMER "Victor Choi"
    INDEX 00 03:15:67
FILE "07. Весна (Spring).m4a" WAVE
    INDEX 01 00:00:00
  TRACK 08 AUDIO
    TITLE "Уходи (Go Away)"
    PERFORMER "Victor Choi"
    INDEX 00 01:58:43
FILE "08. Уходи (Go Away).m4a" WAVE
    INDEX 01 00:00:00
  TRACK 09 AUDIO
    TITLE "Рядом Со Мной (Near Me)"
    PERFORMER "Victor Choi"
    INDEX 00 04:34:62
FILE "09. Рядом Со Мной (Near Me).m4a" WAVE
    INDEX 01 00:00:00
  TRACK 10 AUDIO
    TITLE "Проснись (Stand Up, This Is Love)"
    PERFORMER "Victor Choi"
    INDEX 00 03:49:64
FILE "10. Проснись (Stand Up, This Is Love).m4a" WAVE
    INDEX 01 00:00:00
  TRACK 11 AUDIO
    TITLE "Дети Проходных Дворов (D.P.D.)"
    PERFORMER "Victor Choi"
    INDEX 00 03:30:65
FILE "11. Дети Проходных Дворов (D.P.D.).m4a" WAVE
    INDEX 01 00:00:00
---

Скриншот(ы) тегов iTunes

О конверитровании

Для нарезания image-образа в потрековый рип и конвертирования в ALAC использован CueTools (Windows), при использовании родного кодера QuickTime Apple Lossless. В раздаче присутствует вновь созданный .cue файл для потрекового рипа.
-
[Профиль] [ЛС]

Создавать темы 13-Авг-2015 10:00 (спустя 2 месяца 1 день)

Топик был перенесен из форума Rock (Отечественный) в форум Rock
sergej644
 
Показать сообщения:    

Текущее время: Сегодня 10:06

Часовой пояс: GMT



Вы не можете начинать темы
Вы не можете отвечать на сообщения
Вы не можете редактировать свои сообщения
Вы не можете удалять свои сообщения
Вы не можете голосовать в опросах
Вы не можете прикреплять файлы к сообщениям
Вы не можете скачивать файлы