Кино убийцы / Зимние мертвецы / Killer Movie / Dead of Winter (Джефф Фишер / Jeff Fisher) [2008, ужасы, триллер, детектив, HDRip] VO (den904)

 
Автор Сообщение

painkiller ®

Стаж: 2 года 3 месяца

Сообщений: 582



Награды: Нет

Торрент-статистика

Создавать темы 15-Авг-2014 01:07

[Цитировать]

Кино убийцы / Зимние мертвецы / Killer Movie / Dead of Winter Страна: США
Жанр: ужасы, триллер, детектив
Год выпуска: 2008
Продолжительность: 01:32:19
Перевод: Одноголосый закадровый den904
Оригинальная аудиодорожка: английский
Режиссер: Джефф Фишер / Jeff Fisher
В ролях: Пол Уэсли, Кейли Куоко, Глория Вотсис, Аль Сантос, Джейсон Лондон, Торри ДеВито, Сийя Баттен, Нестор Карбонелл, Дж.С. Часез...
Описание: В далеком северном городке съемки реалити-шоу принимают пугащий поворот и застают враспох команду киношников. Сбежавший из тюрьмы убийца, Джейк Танер, директор шоу, его команда и восходящая звезда Бланка Чампион. Вскоре откроются все подозрения, измены и секреты.
Сэмпл: http://multi-up.com/959821
Качество видео: HDRip [Killer Movie 2008 1080p Bluray x264]
Формат видео: AVI
Видео: XviD, 720x400, 23.976 fps, 1833 kbps, 0.313 bit/pixel
Аудио 1: Mp3, 48 kHz, 2 ch, 128 kbps [Rus-den904]
Аудио 2: Mp3, 48 kHz, 2 ch, 128 kbps [Eng-Dub]

Mediainfo

General
Format : AVI
Format/Info : Audio Video Interleave
File size : 1.36 GiB
Duration : 1h 32mn
Overall bit rate : 2 103 Kbps
Writing application : VirtualDubMod 1.5.10.3 (build 2550/release)
Writing library : VirtualDubMod build 2550/release
Video
ID : 0
Format : MPEG-4 Visual
Format profile : Advanced Simple@L5
Format settings, BVOP : 2
Format settings, QPel : No
Format settings, GMC : No warppoints
Format settings, Matrix : Default (MPEG)
Codec ID : XVID
Codec ID/Hint : XviD
Duration : 1h 32mn
Bit rate : 1 833 Kbps
Width : 720 pixels
Height : 400 pixels
Display aspect ratio : 16:9
Frame rate : 23.976 fps
Color space : YUV
Chroma subsampling : 4:2:0
Bit depth : 8 bits
Scan type : Progressive
Compression mode : Lossy
Bits/(Pixel*Frame) : 0.265
Stream size : 1.18 GiB (87%)
Writing library : XviD 1.2.1 (UTC 2008-12-04)
Audio #1
ID : 1
Format : MPEG Audio
Format version : Version 1
Format profile : Layer 3
Mode : Joint stereo
Codec ID : 55
Codec ID/Hint : MP3
Duration : 1h 32mn
Bit rate mode : Constant
Bit rate : 128 Kbps
Channel(s) : 2 channels
Sampling rate : 48.0 KHz
Compression mode : Lossy
Stream size : 84.5 MiB (6%)
Alignment : Aligned on interleaves
Interleave, duration : 42 ms (1.00 video frame)
Interleave, preload duration : 504 ms
Audio #2
ID : 2
Format : MPEG Audio
Format version : Version 1
Format profile : Layer 3
Mode : Joint stereo
Codec ID : 55
Codec ID/Hint : MP3
Duration : 1h 32mn
Bit rate mode : Constant
Bit rate : 128 Kbps
Channel(s) : 2 channels
Sampling rate : 48.0 KHz
Compression mode : Lossy
Stream size : 84.5 MiB (6%)
Alignment : Aligned on interleaves
Interleave, duration : 42 ms (1.00 video frame)
Interleave, preload duration : 504 ms

Covers DVD

Скриншот c названием фильма

[Профиль] [ЛС]

Создавать темы 06-Авг-2015 23:13 (спустя 11 месяцев 22 дня)

Топик был перенесен из форума Фильмы до 2014 года в форум Фильмы до 2012 года
sergej644
 

Создавать темы 12-Июн-2016 08:51 (спустя 1 год 9 месяцев)

Топик был перенесен из форума Фильмы 2011 года в форум Фильмы 2006-2008 года
Russian Mafia
 
Кто просматривает тему:

Показать сообщения:    

Текущее время: Сегодня 16:19

Часовой пояс: GMT



Вы не можете начинать темы
Вы не можете отвечать на сообщения
Вы не можете редактировать свои сообщения
Вы не можете удалять свои сообщения
Вы не можете голосовать в опросах
Вы не можете прикреплять файлы к сообщениям
Вы не можете скачивать файлы