Кино про Алексеева (Михаил Сегал) [2014, Россия, драма, WEB-DL 720p]

 
Автор Сообщение

TorrentFilm ®

Пол:

Стаж: 2 года

Сообщений: 7741



Награды: Нет

Торрент-статистика

Создавать темы 26-Дек-2014 02:00

[Цитировать]

Кино про Алексеева
Страна: Россия
Студия: Новые люди, Utopia Pictures
Жанр: драма
Год выпуска: 2014
Продолжительность: 01:30:58
Перевод: Не требуется
Cубтитры: нет
Оригинальная аудиодорожка: русский
Режиссер: Михаил Сегал
В ролях: Александр Збруев, Алексей Капитонов, Татьяна Майст, Ксения Радченко, Денис Фомин, Светлана Первушина, Анастасия Попкова, Андрей Макаревич, Дмитрий Гудочкин, Иван Звягинцев
Описание: Фильм-путешествие по удивительной жизни Алексеева. Он пил чай с Тарковским, попал в КГБ из-за Гагарина, конкурировал с Калашниковым и Высоцким. Однажды он узнаёт о себе нечто большее, чем знал и мог предполагать: о своём таланте, о следе, который оставил в судьбах других людей. Жизнь можно прожить заново, если тебя кто-то любит.
Релиз: by Dreamcatcher
Сэмпл: http://multi-up.com/1018879
Тип релиза: WEB-DL 720p
Контейнер: MKV
Видео: 1280@960x536 at 25.000 fps, MPEG-4 AVC , ~4000 kbps avg
Аудио: Russian: 48 kHz, AC3, 3/2 (L,C,R,l,r) + LFE ch, ~384.00 kbps avg

MediaInfo

General
Unique ID : 205081869818500916636735731710312198202 (0x9A4954D782D3DDE4A5E7534D2016303A)
Complete name : D:\Видео\Movies\Kino.pro.Alekseeva.2014.720p.WEB-DL.Rus.HDCLUB.mkv
Format : Matroska
Format version : Version 2
File size : 2.83 GiB
Duration : 1h 30mn
Overall bit rate : 4 452 Kbps
Movie name : Kino pro Alekseeva (2014) - Release for HDCLUB
Encoded date : UTC 2014-12-09 21:33:25
Writing application : mkvmerge v3.4.0 ('Rapunzel') built on May 15 2010 09:38:20
Writing library : libebml v0.8.0 + libmatroska v0.9.0
Video
ID : 1
Format : AVC
Format/Info : Advanced Video Codec
Format profile : Main@L3.1
Format settings, CABAC : No
Format settings, ReFrames : 2 frames
Codec ID : V_MPEG4/ISO/AVC
Duration : 1h 30mn
Bit rate : 3 979 Kbps
Width : 960 pixels
Height : 536 pixels
Display aspect ratio : 2.40:1
Frame rate mode : Constant
Frame rate : 25.000 fps
Color space : YUV
Chroma subsampling : 4:2:0
Bit depth : 8 bits
Scan type : Progressive
Bits/(Pixel*Frame) : 0.309
Stream size : 2.53 GiB (89%)
Title : Kino pro Alekseeva (2014) - Release for HDCLUB
Language : Russian
Default : Yes
Forced : No
Color primaries : BT.709
Transfer characteristics : BT.709
Matrix coefficients : BT.709
Audio
ID : 2
Format : AC-3
Format/Info : Audio Coding 3
Mode extension : CM (complete main)
Format settings, Endianness : Big
Codec ID : A_AC3
Duration : 1h 30mn
Bit rate mode : Constant
Bit rate : 384 Kbps
Channel count : 6 channels
Channel positions : Front: L C R, Side: L R, LFE
Sampling rate : 48.0 KHz
Bit depth : 16 bits
Compression mode : Lossy
Stream size : 250 MiB (9%)
Title : AC3 5.1 @ 384 kbps
Language : Russian
Default : Yes
Forced : No
Menu
00:00:00.000 : ru:Глава 1
00:04:53.000 : ru:Глава 2
00:09:54.000 : ru:Глава 3
00:15:06.000 : ru:Глава 4
00:19:33.000 : ru:Глава 5
00:24:30.000 : ru:Глава 6
00:30:08.000 : ru:Глава 7
00:35:44.000 : ru:Глава 8
00:40:40.000 : ru:Глава 9
00:45:56.000 : ru:Глава 10
00:51:00.000 : ru:Глава 11
00:56:35.000 : ru:Глава 12
01:02:13.000 : ru:Глава 13
01:07:12.000 : ru:Глава 14
01:11:46.000 : ru:Глава 15
01:16:07.000 : ru:Глава 16
01:19:49.000 : ru:Глава 17
01:23:45.000 : ru:Глава 18

Скриншоты


[Профиль] [ЛС]
Кто просматривает тему:

Показать сообщения:    

Текущее время: Сегодня 21:01

Часовой пояс: GMT



Вы не можете начинать темы
Вы не можете отвечать на сообщения
Вы не можете редактировать свои сообщения
Вы не можете удалять свои сообщения
Вы не можете голосовать в опросах
Вы не можете прикреплять файлы к сообщениям
Вы не можете скачивать файлы