(Rock)Кино (Виктор Цой) - Последние записи - 1990 (опубликовано 2002), FLAC (image+.cue), lossless

 
Автор Сообщение

sergej644 ®

Пол:

Стаж: 4 года 11 месяцев

Сообщений: 6041

Откуда: Soviet Union



Награды: Нет

Торрент-статистика

Создавать темы 21-Май-2015 09:50

[Цитировать]

--Кино (Виктор Цой) / Последние записи
Жанр: Rock
Носитель: CD
Страна-производитель диска (релиза): Россия
Год издания: 2002
Издатель (лейбл): Moroz Records
Номер по каталогу: MR 12012 CD
Страна исполнителя (группы): СССР
Аудиокодек: FLAC (*.flac)
Тип рипа: image+.cue
Битрейт аудио: lossless
Продолжительность: 01:14:22
Источник (релизер): Zamaroker
Наличие сканов в содержимом раздачи: да (600dpi)
Треклист:
01. Вопрос (авторский вариант)
02. Сосны на морском берегу (авторский вариант)
03. Blood Type (Группа крови на английском языке)
04. Кончится лето
05. Красно-желтые дни
06. Нам с тобой
07. Звезда
08. Кукушка
09. Когда твоя девушка больна
10. Муравейник
11. Малыш
12. Муравейник
13. Когда твоя девушка больна
14. Вопрос
15. Сосны на морском берегу
16. Стук
17. Печаль
18. Апрель
19. Смотри - это кино...

Лог создания рипа

Exact Audio Copy V1.0 beta 3 from 29. August 2011
Отчёт EAC об извлечении, выполненном 19. мая 2015, 23:36
Кино / Последние записи
Дисковод: TSSTcorpCDDVDW SH-S223C Adapter: 2 ID: 0
Режим чтения : ДостоверностьИспользование точного потока : ДаОтключение кэша аудио : ДаИспользование указателей C2 : Нет
Коррекция смещения при чтении : 697Способность читать области Lead-in и Lead-out : НетЗаполнение пропущенных сэмплов тишиной : ДаУдаление блоков с тишиной в начале и конце : НетПри вычислениях CRC использовались нулевые сэмплы : ДаИнтерфейс : Встроенный Win32-интерфейс для Win NT/2000
Выходной формат : Внутренние WAV-операцииФормат сэмплов : 44.100 Гц; 16 бит; стерео
TOC извлечённого CD
Трек | Старт | Длительность | Начальный сектор | Конечный сектор --------------------------------------------------------------------- 1 | 0:00.00 | 3:46.42 | 0 | 16991 2 | 3:46.42 | 4:32.31 | 16992 | 37422 3 | 8:18.73 | 4:47.59 | 37423 | 59006 4 | 13:06.57 | 6:03.44 | 59007 | 86275 5 | 19:10.26 | 6:46.17 | 86276 | 116742 6 | 25:56.43 | 5:15.25 | 116743 | 140392 7 | 31:11.68 | 4:32.57 | 140393 | 160849 8 | 35:44.50 | 5:46.02 | 160850 | 186801 9 | 41:30.52 | 3:52.54 | 186802 | 204255 10 | 45:23.31 | 4:03.62 | 204256 | 222542 11 | 49:27.18 | 2:44.62 | 222543 | 234904 12 | 52:12.05 | 2:39.52 | 234905 | 246881 13 | 54:51.57 | 2:18.43 | 246882 | 257274 14 | 57:10.25 | 3:05.08 | 257275 | 271157 15 | 60:15.33 | 3:21.06 | 271158 | 286238 16 | 63:36.39 | 2:18.61 | 286239 | 296649 17 | 65:55.25 | 3:38.63 | 296650 | 313062 18 | 69:34.13 | 3:42.35 | 313063 | 329747 19 | 73:16.48 | 1:05.11 | 329748 | 334633
Характеристики диапазона извлечения и сообщения об ошибках
Выбранный диапазон
Имя файла C:\Users\Vova Rokerov\Desktop\Кино - Последние записи.wav
Пиковый уровень 100.0 % Скорость извлечения 3.5 X Качество диапазона 99.9 % CRC теста A973D386 CRC копии A973D386 Копирование... OK
Ошибок не произошло
Конец отчёта

Содержание индексной карты (.CUE)

REM GENRE "Russian Rock"REM DATE 1990REM DISCID 31116D13REM COMMENT "ExactAudioCopy v1.0b3"PERFORMER "Кино"TITLE "Последние записи"FILE "Кино - Последние записи.flac" WAVE TRACK 01 AUDIO TITLE "Вопрос (авторский вариант)" PERFORMER "Кино" INDEX 01 00:00:00 TRACK 02 AUDIO TITLE "Сосны на морском берегу (авторский вариант)" PERFORMER "Кино" INDEX 01 03:46:42 TRACK 03 AUDIO TITLE "Blood Type (Группа крови на английском языке)" PERFORMER "Кино" INDEX 01 08:18:73 TRACK 04 AUDIO TITLE "Кончится лето" PERFORMER "Кино" INDEX 01 13:06:57 TRACK 05 AUDIO TITLE "Красно-желтые дни" PERFORMER "Кино" INDEX 01 19:10:26 TRACK 06 AUDIO TITLE "Нам с тобой" PERFORMER "Кино" INDEX 01 25:56:43 TRACK 07 AUDIO TITLE "Звезда" PERFORMER "Кино" INDEX 01 31:11:68 TRACK 08 AUDIO TITLE "Кукушка" PERFORMER "Кино" INDEX 01 35:44:50 TRACK 09 AUDIO TITLE "Когда твоя девушка больна" PERFORMER "Кино" INDEX 01 41:30:52 TRACK 10 AUDIO TITLE "Муравейник" PERFORMER "Кино" INDEX 01 45:23:31 TRACK 11 AUDIO TITLE "Малыш" PERFORMER "Кино" INDEX 01 49:27:18 TRACK 12 AUDIO TITLE "Муравейник" PERFORMER "Кино" INDEX 01 52:12:05 TRACK 13 AUDIO TITLE "Когда твоя девушка больна" PERFORMER "Кино" INDEX 01 54:51:57 TRACK 14 AUDIO TITLE "Вопрос" PERFORMER "Кино" INDEX 01 57:10:25 TRACK 15 AUDIO TITLE "Сосны на морском берегу" PERFORMER "Кино" INDEX 01 60:15:33 TRACK 16 AUDIO TITLE "Стук" PERFORMER "Кино" INDEX 01 63:36:39 TRACK 17 AUDIO TITLE "Печаль" PERFORMER "Кино" INDEX 01 65:55:25 TRACK 18 AUDIO TITLE "Апрель" PERFORMER "Кино" INDEX 01 69:34:13 TRACK 19 AUDIO TITLE "Смотри - это кино..." PERFORMER "Кино" INDEX 01 73:16:48
Доп. информация: Внимание! Файлы *.CUE и *.LOG вшиты в образ диска и не требуют отдельного их использования!

Об альбоме (сборнике)

Данный диск издавался в 2002, но в 2012 был переиздан компанией Moroz Records с бонусом - 19 треком.
[Профиль] [ЛС]

Создавать темы 13-Авг-2015 10:00 (спустя 2 месяца 23 дня)

Топик был перенесен из форума Rock (Отечественный) в форум Rock
sergej644
 
Показать сообщения:    

Текущее время: Сегодня 12:50

Часовой пояс: GMT



Вы не можете начинать темы
Вы не можете отвечать на сообщения
Вы не можете редактировать свои сообщения
Вы не можете удалять свои сообщения
Вы не можете голосовать в опросах
Вы не можете прикреплять файлы к сообщениям
Вы не можете скачивать файлы