(Rock)Кино (Виктор Цой) - Неремастированная CD-дискография - 1989-1996 [21`CD], ALAC (tracks+.cue), lossless

 
Автор Сообщение

sergej644 ®

Пол:

Стаж: 4 года 11 месяцев

Сообщений: 6040

Откуда: Soviet Union



Награды: Нет

Торрент-статистика

Создавать темы 12-Июн-2015 19:06

[Цитировать]

--Кино (Виктор Цой) / Неремастированная CD-дискография -Жанр: Rock
Носитель: CD
Страна-производитель диска: USA, Japan, Austria, Germany
Год издания: 1989-1996
Страна исполнителя (группы): USSR
Аудио кодек: ALAC (*.m4a)
Тип рипа: tracks+.cue
Программа-конвертер: CueTools
Битрейт аудио: lossless
Наличие сканов в содержимом раздачи: *.jpeg, 600 dpi
Тексты: вшиты
Обложки: вшиты-Википедия писал(а):«Кино́» — одна из самых популярных советских рок-групп 1980-х годов. Лидером, автором практически всех текстов и музыки неизменно оставался Виктор Цой, после смерти которого коллектив, выпустивший в общей сложности за девять лет на студийных альбомах более ста песен, несколько сборников и концертных записей, а также большое количество неофициальных бутлегов, прекратил существование.
Группа породила феномен «киномании», усилившийся после трагической гибели Виктора Цоя и существующий по сей день — место работы музыканта стало объектом паломничества многочисленных фанатов со всех стран постсоветского пространства, в Кривоарбатском переулке (Москва) появилась так называемая «стена Цоя», которую поклонники исписали цитатами из песен и признаниями в любви к творчеству группы. «Кино» часто находит отражение в массовой культуре, оставленное ими наследие высоко оценивается сегодняшними обозревателями и музыковедами.
-

Кино

1982 - 45 (Austria - Moroz Records MR 94014 CD - 1994)

01. Время есть, а денег нет 4:10
02.
Просто хочешь ты знать 3:28
03.
Алюминиевые огурцы 2:57
04.
Солнечные дни 3:13
05.
Бездельник 3:14
06.
Бездельник - 2 3:06
07.
Электричка 2:38
08.
Восьмиклассница 2:46
09.
Мои друзья 4:27
10.
Ситар играл 1:34
11.
Дерево 1:44
12.
Когда-то ты был битником 3:41
13.
На кухне 2:57
Продолжительность: 39:55

Отчёт ЕАС

Exact Audio Copy V1.0 beta 3 from 29. August 2011
Отчёт EAC об извлечении, выполненном 7. мая 2013, 11:44
Кино / 45
Дисковод: PIONEER DVD-RW  DVR-215D   Adapter: 2  ID: 0
Режим чтения                 : Достоверность
Использование точного потока : Да
Отключение кэша аудио        : Да
Использование указателей C2  : Нет
Коррекция смещения при чтении                     : 48
Способность читать области Lead-in и Lead-out     : Нет
Заполнение пропущенных сэмплов тишиной            : Да
Удаление блоков с тишиной в начале и конце        : Нет
При вычислениях CRC использовались нулевые сэмплы : Да
Интерфейс                                         : Встроенный Win32-интерфейс для Win NT/2000
Выходной формат          : Пользовательский кодировщик
Выбранный битрейт        : 128 kBit/s
Качество                 : Высокий
Добавление ID3-тега      : Нет
Утилита сжатия           : C:\Program Files (x86)\Exact Audio Copy\Flac\flac.exe
Дополнительные параметры : -V -8 %source%
TOC извлечённого CD
     Трек |   Старт  | Длительность | Начальный сектор | Конечный сектор
    ---------------------------------------------------------------------
       1  |  0:00.00 |    4:10.12   |           0      |      18761
       2  |  4:10.12 |    3:28.18   |       18762      |      34379
       3  |  7:38.30 |    2:56.57   |       34380      |      47636
       4  | 10:35.12 |    3:13.05   |       47637      |      62116
       5  | 13:48.17 |    3:13.55   |       62117      |      76646
       6  | 17:01.72 |    3:06.00   |       76647      |      90596
       7  | 20:07.72 |    2:37.55   |       90597      |     102426
       8  | 22:45.52 |    2:46.30   |      102427      |     114906
       9  | 25:32.07 |    4:27.35   |      114907      |     134966
      10  | 29:59.42 |    1:34.33   |      134967      |     142049
      11  | 31:34.00 |    1:43.67   |      142050      |     149841
      12  | 33:17.67 |    3:41.13   |      149842      |     166429
      13  | 36:59.05 |    2:56.70   |      166430      |     179699
Характеристики диапазона извлечения и сообщения об ошибках
Выбранный диапазон
     Имя файла D:\МУЗЫКАЛЬНЫЙ АРХИВ\КИНО\sound\Кино (Виктор Цой) - Неремастированная CD-дискография (1989-1995)\1982-45 (1994)\Кино - 45.wav
     Пиковый уровень 80.4 %
     Скорость извлечения 6.8 X
     Качество диапазона 100.0 %
     CRC теста 8AFEE82E
     CRC копии 8AFEE82E
     Копирование... OK
Ошибок не произошло
Конец отчёта
==== Контрольная сумма отчёта 832EA86E889C4339678CA6832179968F24F9585513A12C82A981334E26C02CB9 ====

Содержание индексной карты (.CUE)

REM GENRE "Rock"
REM DATE 1994
REM DISCID A5095C0D
REM COMMENT "ExactAudioCopy v1.0b3"
PERFORMER "Кино"
TITLE "1982 - 45 (Austria - Moroz Records MR 94014 CD - 1994)"
FILE "01. Время Есть, А Денег Нет.m4a" WAVE
  TRACK 01 AUDIO
    TITLE "Время Есть, А Денег Нет"
    PERFORMER "Кино"
    INDEX 01 00:00:00
  TRACK 02 AUDIO
    TITLE "Просто Хочешь Ты Знать"
    PERFORMER "Кино"
    INDEX 00 04:09:62
FILE "02. Просто Хочешь Ты Знать.m4a" WAVE
    INDEX 01 00:00:00
  TRACK 03 AUDIO
    TITLE "Алюминиевые Огурцы"
    PERFORMER "Кино"
    INDEX 00 03:27:50
FILE "03. Алюминиевые Огурцы.m4a" WAVE
    INDEX 01 00:00:00
  TRACK 04 AUDIO
    TITLE "Солнечные Дни"
    PERFORMER "Кино"
    INDEX 00 02:56:35
FILE "04. Солнечные Дни.m4a" WAVE
    INDEX 01 00:00:00
  TRACK 05 AUDIO
    TITLE "Бездельник"
    PERFORMER "Кино"
    INDEX 00 03:12:53
FILE "05. Бездельник.m4a" WAVE
    INDEX 01 00:00:00
  TRACK 06 AUDIO
    TITLE "Бездельник 2"
    PERFORMER "Кино"
    INDEX 00 03:13:40
FILE "06. Бездельник 2.m4a" WAVE
    INDEX 01 00:00:00
  TRACK 07 AUDIO
    TITLE "Электричка"
    PERFORMER "Кино"
    INDEX 00 03:05:24
FILE "07. Электричка.m4a" WAVE
    INDEX 01 00:00:00
  TRACK 08 AUDIO
    TITLE "Восьмикласница"
    PERFORMER "Кино"
    INDEX 00 02:37:23
FILE "08. Восьмикласница.m4a" WAVE
    INDEX 01 00:00:00
  TRACK 09 AUDIO
    TITLE "Мои Друзья"
    PERFORMER "Кино"
    INDEX 00 02:45:60
FILE "09. Мои Друзья.m4a" WAVE
    INDEX 01 00:00:00
  TRACK 10 AUDIO
    TITLE "Ситар Играл"
    PERFORMER "Кино"
    INDEX 00 04:26:48
FILE "10. Ситар Играл.m4a" WAVE
    INDEX 01 00:00:00
  TRACK 11 AUDIO
    TITLE "Дерево"
    PERFORMER "Кино"
    INDEX 00 01:33:63
FILE "11. Дерево.m4a" WAVE
    INDEX 01 00:00:00
  TRACK 12 AUDIO
    TITLE "Когда-то Ты Был Битником"
    PERFORMER "Кино"
    INDEX 00 01:43:50
FILE "12. Когда-то Ты Был Битником.m4a" WAVE
    INDEX 01 00:00:00
  TRACK 13 AUDIO
    TITLE "На Кухне"
    PERFORMER "Кино"
    INDEX 00 03:40:60
FILE "13. На Кухне.m4a" WAVE
    INDEX 01 00:00:00

1983 - 46 (Austria - Moroz Records MR 94031 CD - 1994)

01. Троллейбус 2:50
02.
Камчатка 2:08
03.
Транквилизатор 5:29
04.
Я иду по улице 2:01
05.
Дождь для нас 3:24
06.
Пора 1:47
07.
Каждую ночь 2:47
08.
Без десяти 2:06
09.
Музыка волн 2:44
10.
Саша 4:04
11.
Хочу быть с тобой 2:19
12.
Генерал 4:03
Продолжительность: 35:40

Отчёт ЕАС

Exact Audio Copy V1.0 beta 3 from 29. August 2011
Отчёт EAC об извлечении, выполненном 7. мая 2013, 11:58
Кино / 46
Дисковод: PIONEER DVD-RW  DVR-215D   Adapter: 2  ID: 0
Режим чтения                 : Достоверность
Использование точного потока : Да
Отключение кэша аудио        : Да
Использование указателей C2  : Нет
Коррекция смещения при чтении                     : 48
Способность читать области Lead-in и Lead-out     : Нет
Заполнение пропущенных сэмплов тишиной            : Да
Удаление блоков с тишиной в начале и конце        : Нет
При вычислениях CRC использовались нулевые сэмплы : Да
Интерфейс                                         : Встроенный Win32-интерфейс для Win NT/2000
Выходной формат          : Пользовательский кодировщик
Выбранный битрейт        : 128 kBit/s
Качество                 : Высокий
Добавление ID3-тега      : Нет
Утилита сжатия           : C:\Program Files (x86)\Exact Audio Copy\Flac\flac.exe
Дополнительные параметры : -V -8 %source%
TOC извлечённого CD
     Трек |   Старт  | Длительность | Начальный сектор | Конечный сектор
    ---------------------------------------------------------------------
       1  |  0:00.00 |    2:49.47   |           0      |      12721
       2  |  2:49.47 |    2:08.18   |       12722      |      22339
       3  |  4:57.65 |    5:29.00   |       22340      |      47014
       4  | 10:26.65 |    2:00.62   |       47015      |      56076
       5  | 12:27.52 |    3:24.20   |       56077      |      71396
       6  | 15:51.72 |    1:47.30   |       71397      |      79451
       7  | 17:39.27 |    2:46.73   |       79452      |      91974
       8  | 20:26.25 |    2:05.55   |       91975      |     101404
       9  | 22:32.05 |    2:43.65   |      101405      |     113694
      10  | 25:15.70 |    4:03.55   |      113695      |     131974
      11  | 29:19.50 |    2:18.42   |      131975      |     142366
      12  | 31:38.17 |    4:02.58   |      142367      |     160574
Характеристики диапазона извлечения и сообщения об ошибках
Выбранный диапазон
     Имя файла D:\МУЗЫКАЛЬНЫЙ АРХИВ\КИНО\sound\Кино (Виктор Цой) - Неремастированная CD-дискография (1989-1995)\1983-46 (1994)\Кино - 46.wav
     Пиковый уровень 75.3 %
     Скорость извлечения 6.6 X
     Качество диапазона 100.0 %
     CRC теста 5B476AA0
     CRC копии 5B476AA0
     Копирование... OK
Ошибок не произошло
Конец отчёта
==== Контрольная сумма отчёта 53CAFE56D11D9916053608CCADF23A417A40EF97985E2D7047EECBA01EF12C39 ====

Содержание индексной карты (.CUE)

REM GENRE "Rock"
REM DATE 1994
REM DISCID 9D085D0C
REM COMMENT "ExactAudioCopy v1.0b3"
PERFORMER "Кино"
TITLE "1983 - 46 (Austria - Moroz Records MR 94031 CD - 1994)"
FILE "01. Троллейбус.m4a" WAVE
  TRACK 01 AUDIO
    TITLE "Троллейбус"
    PERFORMER "Кино"
    INDEX 01 00:00:00
  TRACK 02 AUDIO
    TITLE "Камчатка"
    PERFORMER "Кино"
    INDEX 00 02:49:45
FILE "02. Камчатка.m4a" WAVE
    INDEX 01 00:00:00
  TRACK 03 AUDIO
    TITLE "Транквилизатор"
    PERFORMER "Кино"
    INDEX 00 02:08:15
FILE "03. Транквилизатор.m4a" WAVE
    INDEX 01 00:00:00
  TRACK 04 AUDIO
    TITLE "Я Иду По Улице"
    PERFORMER "Кино"
    INDEX 00 05:28:72
FILE "04. Я Иду По Улице.m4a" WAVE
    INDEX 01 00:00:00
  TRACK 05 AUDIO
    TITLE "Дождь Для Нас"
    PERFORMER "Кино"
    INDEX 00 02:00:60
FILE "05. Дождь Для Нас.m4a" WAVE
    INDEX 01 00:00:00
  TRACK 06 AUDIO
    TITLE "Пора"
    PERFORMER "Кино"
    INDEX 00 03:24:18
FILE "06. Пора.m4a" WAVE
    INDEX 01 00:00:00
  TRACK 07 AUDIO
    TITLE "Каждую Ночь"
    PERFORMER "Кино"
    INDEX 00 01:47:28
FILE "07. Каждую Ночь.m4a" WAVE
    INDEX 01 00:00:00
  TRACK 08 AUDIO
    TITLE "Без Десяти"
    PERFORMER "Кино"
    INDEX 00 02:46:70
FILE "08. Без Десяти.m4a" WAVE
    INDEX 01 00:00:00
  TRACK 09 AUDIO
    TITLE "Музыка Волн"
    PERFORMER "Кино"
    INDEX 00 02:05:52
FILE "09. Музыка Волн.m4a" WAVE
    INDEX 01 00:00:00
  TRACK 10 AUDIO
    TITLE "Саша"
    PERFORMER "Кино"
    INDEX 00 02:43:62
FILE "10. Саша.m4a" WAVE
    INDEX 01 00:00:00
  TRACK 11 AUDIO
    TITLE "Хочу Быть С Тобой"
    PERFORMER "Кино"
    INDEX 00 04:03:52
FILE "11. Хочу Быть С Тобой.m4a" WAVE
    INDEX 01 00:00:00
  TRACK 12 AUDIO
    TITLE "Генерал"
    PERFORMER "Кино"
    INDEX 00 02:18:40
FILE "12. Генерал.m4a" WAVE
    INDEX 01 00:00:00

1984 - Начальник Камчатки (Austria - Moroz Records MR 94011 CD - 1994)

01. Последний герой 2:56
02.
Каждую ночь 3:01
03.
Транквилизатор 5:36
04.
Сюжет для новой песни 2:13
05.
Гость 3:59
06.
Камчатка 2:54
07.
Ария мистера Х 2:19
08.
Троллейбус 2:26
09.
Растопите снег 1:54
10.
Дождь для нас 3:23
11.
Хочу быть с тобой 2:30
12.
Генерал 3:30
13.
Прогулка романтика 3:29
Продолжительность: 40:08

Отчёт ЕАС

Exact Audio Copy V1.0 beta 3 from 29. August 2011
Отчёт EAC об извлечении, выполненном 7. мая 2013, 12:15
Кино / Начальник Камчатки
Дисковод: PIONEER DVD-RW  DVR-215D   Adapter: 2  ID: 0
Режим чтения                 : Достоверность
Использование точного потока : Да
Отключение кэша аудио        : Да
Использование указателей C2  : Нет
Коррекция смещения при чтении                     : 48
Способность читать области Lead-in и Lead-out     : Нет
Заполнение пропущенных сэмплов тишиной            : Да
Удаление блоков с тишиной в начале и конце        : Нет
При вычислениях CRC использовались нулевые сэмплы : Да
Интерфейс                                         : Встроенный Win32-интерфейс для Win NT/2000
Выходной формат          : Пользовательский кодировщик
Выбранный битрейт        : 128 kBit/s
Качество                 : Высокий
Добавление ID3-тега      : Нет
Утилита сжатия           : C:\Program Files (x86)\Exact Audio Copy\Flac\flac.exe
Дополнительные параметры : -V -8 %source%
TOC извлечённого CD
     Трек |   Старт  | Длительность | Начальный сектор | Конечный сектор
    ---------------------------------------------------------------------
       1  |  0:00.00 |    2:56.32   |           0      |      13231
       2  |  2:56.32 |    3:00.40   |       13232      |      26771
       3  |  5:56.72 |    5:36.08   |       26772      |      51979
       4  | 11:33.05 |    2:12.70   |       51980      |      61949
       5  | 13:46.00 |    3:59.25   |       61950      |      79899
       6  | 17:45.25 |    2:53.60   |       79900      |      92934
       7  | 20:39.10 |    2:19.02   |       92935      |     103361
       8  | 22:58.12 |    2:25.38   |      103362      |     114274
       9  | 25:23.50 |    1:53.62   |      114275      |     122811
      10  | 27:17.37 |    3:22.38   |      122812      |     137999
      11  | 30:40.00 |    2:30.00   |      138000      |     149249
      12  | 33:10.00 |    3:29.40   |      149250      |     164964
      13  | 36:39.40 |    3:28.60   |      164965      |     180624
Характеристики диапазона извлечения и сообщения об ошибках
Выбранный диапазон
     Имя файла D:\МУЗЫКАЛЬНЫЙ АРХИВ\КИНО\sound\Кино (Виктор Цой) - Неремастированная CD-дискография (1989-1995)\1984-Начальник камчатки (1994)\Кино - Начальник Камчатки.wav
     Пиковый уровень 87.1 %
     Скорость извлечения 6.7 X
     Качество диапазона 99.9 %
     CRC теста 8CBBB54B
     CRC копии 8CBBB54B
     Копирование... OK
Ошибок не произошло
Конец отчёта
==== Контрольная сумма отчёта FB78A8948CB2BFC755D84F02F8C6E3FAB5651190B5BC7DF2D2C810B35A1A32F7 ====

Содержание индексной карты (.CUE)

REM GENRE "Rock"
REM DATE 1994
REM DISCID B309680D
REM COMMENT "ExactAudioCopy v1.0b3"
PERFORMER "Кино"
TITLE "1984 - Начальник Камчатки (Austria - Moroz Records MR 94011 CD - 1994)"
FILE "01. Последний Герой.m4a" WAVE
  TRACK 01 AUDIO
    TITLE "Последний Герой"
    PERFORMER "Кино"
    INDEX 01 00:00:00
  TRACK 02 AUDIO
    TITLE "Каждую Ночь"
    PERFORMER "Кино"
    INDEX 00 02:53:62
FILE "02. Каждую Ночь.m4a" WAVE
    INDEX 01 00:00:00
  TRACK 03 AUDIO
    TITLE "Транквилизатор"
    PERFORMER "Кино"
    INDEX 00 02:58:43
FILE "03. Транквилизатор.m4a" WAVE
    INDEX 01 00:00:00
  TRACK 04 AUDIO
    TITLE "Сюжет Для Новой Песни"
    PERFORMER "Кино"
    INDEX 00 05:34:28
FILE "04. Сюжет Для Новой Песни.m4a" WAVE
    INDEX 01 00:00:00
  TRACK 05 AUDIO
    TITLE "Гость"
    PERFORMER "Кино"
    INDEX 00 02:10:15
FILE "05. Гость.m4a" WAVE
    INDEX 01 00:00:00
  TRACK 06 AUDIO
    TITLE "Камчатка"
    PERFORMER "Кино"
    INDEX 00 03:57:00
FILE "06. Камчатка.m4a" WAVE
    INDEX 01 00:00:00
  TRACK 07 AUDIO
    TITLE "Ария Мистера X"
    PERFORMER "Кино"
    INDEX 00 02:51:37
FILE "07. Ария Мистера X.m4a" WAVE
    INDEX 01 00:00:00
  TRACK 08 AUDIO
    TITLE "Троллейбус"
    PERFORMER "Кино"
    INDEX 00 02:16:22
FILE "08. Троллейбус.m4a" WAVE
    INDEX 01 00:00:00
  TRACK 09 AUDIO
    TITLE "Растопите Снег"
    PERFORMER "Кино"
    INDEX 00 02:22:68
FILE "09. Растопите Снег.m4a" WAVE
    INDEX 01 00:00:00
  TRACK 10 AUDIO
    TITLE "Дождь Для Нас"
    PERFORMER "Кино"
    INDEX 00 01:50:55
FILE "10. Дождь Для Нас.m4a" WAVE
    INDEX 01 00:00:00
  TRACK 11 AUDIO
    TITLE "Хочу Быть С Тобой"
    PERFORMER "Кино"
    INDEX 00 03:19:25
FILE "11. Хочу Быть С Тобой.m4a" WAVE
    INDEX 01 00:00:00
  TRACK 12 AUDIO
    TITLE "Генерал"
    PERFORMER "Кино"
    INDEX 00 02:26:50
FILE "12. Генерал.m4a" WAVE
    INDEX 01 00:00:00
  TRACK 13 AUDIO
    TITLE "Прогулка Романтика"
    PERFORMER "Кино"
    INDEX 00 03:25:62
FILE "13. Прогулка Романтика.m4a" WAVE
    INDEX 01 00:00:00

1985 - Это Не Любовь... (Austria - Moroz Records MR 94012 CD - 1994)

01. Это не любовь 3:29
02.
Весна 2:00
03.
Уходи 4:38
04.
Город 3:46
05.
Проснись 3:32
06.
Рядом со мной 3:50
07.
Я объявляю свой дом 2:23
08.
Саша 3:17
09.
Верь мне 5:34
10.
Дети проходных дворов 1:46
11.
Музыка волн 4:04
Продолжительность: 38:19

Отчёт ЕАС

Exact Audio Copy V1.0 beta 3 from 29. August 2011
Отчёт EAC об извлечении, выполненном 7. мая 2013, 12:30
Кино / Это Не Любовь
Дисковод: PIONEER DVD-RW  DVR-215D   Adapter: 2  ID: 0
Режим чтения                 : Достоверность
Использование точного потока : Да
Отключение кэша аудио        : Да
Использование указателей C2  : Нет
Коррекция смещения при чтении                     : 48
Способность читать области Lead-in и Lead-out     : Нет
Заполнение пропущенных сэмплов тишиной            : Да
Удаление блоков с тишиной в начале и конце        : Нет
При вычислениях CRC использовались нулевые сэмплы : Да
Интерфейс                                         : Встроенный Win32-интерфейс для Win NT/2000
Выходной формат          : Пользовательский кодировщик
Выбранный битрейт        : 128 kBit/s
Качество                 : Высокий
Добавление ID3-тега      : Нет
Утилита сжатия           : C:\Program Files (x86)\Exact Audio Copy\Flac\flac.exe
Дополнительные параметры : -V -8 %source%
TOC извлечённого CD
     Трек |   Старт  | Длительность | Начальный сектор | Конечный сектор
    ---------------------------------------------------------------------
       1  |  0:00.00 |    3:29.15   |           0      |      15689
       2  |  3:29.15 |    1:59.65   |       15690      |      24679
       3  |  5:29.05 |    4:37.40   |       24680      |      45494
       4  | 10:06.45 |    3:46.22   |       45495      |      62466
       5  | 13:52.67 |    3:32.20   |       62467      |      78386
       6  | 17:25.12 |    3:49.63   |       78387      |      95624
       7  | 21:15.00 |    2:23.35   |       95625      |     106384
       8  | 23:38.35 |    3:17.20   |      106385      |     121179
       9  | 26:55.55 |    5:33.62   |      121180      |     146216
      10  | 32:29.42 |    1:46.13   |      146217      |     154179
      11  | 34:15.55 |    4:04.20   |      154180      |     172499
Характеристики диапазона извлечения и сообщения об ошибках
Выбранный диапазон
     Имя файла D:\МУЗЫКАЛЬНЫЙ АРХИВ\КИНО\sound\Кино (Виктор Цой) - Неремастированная CD-дискография (1989-1995)\1985-Это не любовь (1994)\Кино - Это Не Любовь.wav
     Пиковый уровень 87.1 %
     Скорость извлечения 6.7 X
     Качество диапазона 100.0 %
     CRC теста 13E03750
     CRC копии 13E03750
     Копирование... OK
Ошибок не произошло
Конец отчёта
==== Контрольная сумма отчёта BD674A6FEECC151C2D3223C6A6FDE5904D8594E9C454119D5881D137C9716913 ====

Содержание индексной карты (.CUE)

REM GENRE "Rock"
REM DATE 1994
REM DISCID 7B08FC0B
REM COMMENT "ExactAudioCopy v1.0b3"
PERFORMER "Кино"
TITLE "1985 - Это Не Любовь... (Austria - Moroz Records MR 94012 CD - 1994)"
FILE "01. Это Не Любовь.m4a" WAVE
  TRACK 01 AUDIO
    TITLE "Это Не Любовь"
    PERFORMER "Кино"
    INDEX 01 00:00:00
  TRACK 02 AUDIO
    TITLE "Весна"
    PERFORMER "Кино"
    INDEX 00 03:29:12
FILE "02. Весна.m4a" WAVE
    INDEX 01 00:00:00
  TRACK 03 AUDIO
    TITLE "Уходи"
    PERFORMER "Кино"
    INDEX 00 01:59:10
FILE "03. Уходи.m4a" WAVE
    INDEX 01 00:00:00
  TRACK 04 AUDIO
    TITLE "Город"
    PERFORMER "Кино"
    INDEX 00 04:37:32
FILE "04. Город.m4a" WAVE
    INDEX 01 00:00:00
  TRACK 05 AUDIO
    TITLE "Рядом Со Мной"
    PERFORMER "Кино"
    INDEX 00 03:44:37
FILE "05. Рядом Со Мной.m4a" WAVE
    INDEX 01 00:00:00
  TRACK 06 AUDIO
    TITLE "Ты Выглядишь Так Несовременно"
    PERFORMER "Кино"
    INDEX 00 03:32:10
FILE "06. Ты Выглядишь Так Несовременно.m4a" WAVE
    INDEX 01 00:00:00
  TRACK 07 AUDIO
    TITLE "Я Обьявляю Свой Дом"
    PERFORMER "Кино"
    INDEX 00 03:49:55
FILE "07. Я Обьявляю Свой Дом.m4a" WAVE
    INDEX 01 00:00:00
  TRACK 08 AUDIO
    TITLE "Саша"
    PERFORMER "Кино"
    INDEX 00 02:22:00
FILE "08. Саша.m4a" WAVE
    INDEX 01 00:00:00
  TRACK 09 AUDIO
    TITLE "Верь Мне"
    PERFORMER "Кино"
    INDEX 00 03:17:12
FILE "09. Верь Мне.m4a" WAVE
    INDEX 01 00:00:00
  TRACK 10 AUDIO
    TITLE "Дети Проходных Дворов"
    PERFORMER "Кино"
    INDEX 00 05:33:45
FILE "10. Дети Проходных Дворов.m4a" WAVE
    INDEX 01 00:00:00
  TRACK 11 AUDIO
    TITLE "Музыка Волн"
    PERFORMER "Кино"
    INDEX 00 01:45:33
FILE "11. Музыка Волн.m4a" WAVE
    INDEX 01 00:00:00

1985 - Это Не Любовь... (Germany - Konzert Agentur Michael Friedmann Vol. 5 - 1995)

01. Это не любовь 3:28
02.
Весна 2:01
03.
Уходи 4:37
04.
Город 3:46
05.
Проснись 3:32
06.
Рядом со мной 3:50
07.
Я объявляю свой дом 2:24
08.
Саша 3:17
09.
Верь мне 5:34
10.
Дети проходных дворов 1:46
11.
Музыка волн 4:03
Продолжительность: 38:17

Отчёт ЕАС

Exact Audio Copy V1.0 beta 3 from 29. August 2011
Отчёт EAC об извлечении, выполненном 7. мая 2013, 12:46
Кино / Это Не Любовь (MF-Vol. 5)
Дисковод: PIONEER DVD-RW  DVR-215D   Adapter: 2  ID: 0
Режим чтения                 : Достоверность
Использование точного потока : Да
Отключение кэша аудио        : Да
Использование указателей C2  : Нет
Коррекция смещения при чтении                     : 48
Способность читать области Lead-in и Lead-out     : Нет
Заполнение пропущенных сэмплов тишиной            : Да
Удаление блоков с тишиной в начале и конце        : Нет
При вычислениях CRC использовались нулевые сэмплы : Да
Интерфейс                                         : Встроенный Win32-интерфейс для Win NT/2000
Выходной формат          : Пользовательский кодировщик
Выбранный битрейт        : 128 kBit/s
Качество                 : Высокий
Добавление ID3-тега      : Нет
Утилита сжатия           : C:\Program Files (x86)\Exact Audio Copy\Flac\flac.exe
Дополнительные параметры : -V -8 %source%
TOC извлечённого CD
     Трек |   Старт  | Длительность | Начальный сектор | Конечный сектор
    ---------------------------------------------------------------------
       1  |  0:00.00 |    3:28.05   |           0      |      15604
       2  |  3:28.05 |    2:00.55   |       15605      |      24659
       3  |  5:28.60 |    4:37.28   |       24660      |      45462
       4  | 10:06.13 |    3:46.10   |       45463      |      62422
       5  | 13:52.23 |    3:32.10   |       62423      |      78332
       6  | 17:24.33 |    3:49.65   |       78333      |      95572
       7  | 21:14.23 |    2:23.70   |       95573      |     106367
       8  | 23:38.18 |    3:17.05   |      106368      |     121147
       9  | 26:55.23 |    5:33.60   |      121148      |     146182
      10  | 32:29.08 |    1:46.07   |      146183      |     154139
      11  | 34:15.15 |    4:02.43   |      154140      |     172332
Характеристики диапазона извлечения и сообщения об ошибках
Выбранный диапазон
     Имя файла D:\МУЗЫКАЛЬНЫЙ АРХИВ\КИНО\sound\Кино (Виктор Цой) - Неремастированная CD-дискография (1989-1995)\1985-Это не любовь (MF (Михаил Фридман) Vol. 5 1995)\Кино - Это Не Любовь (MF-Vol. 5).wav
     Пиковый уровень 87.1 %
     Скорость извлечения 6.6 X
     Качество диапазона 99.9 %
     CRC теста 5432CE56
     CRC копии 5432CE56
     Копирование... OK
Ошибок не произошло
Конец отчёта
==== Контрольная сумма отчёта 9E1F34705EA4FE4DA641299F1BD15DE79A8E2953D3A9A4096BED329682B2B18A ====

Содержание индексной карты (.CUE)

REM GENRE "Rock"
REM DATE 1995
REM DISCID 7708F90B
REM COMMENT "ExactAudioCopy v1.0b3"
PERFORMER "Кино"
TITLE "1985 - Это Не Любовь... (Germany - Konzert Agentur Michael Friedmann Vol. 5 - 1995)"
FILE "01. Это Не Любовь.m4a" WAVE
  TRACK 01 AUDIO
    TITLE "Это Не Любовь"
    PERFORMER "Кино"
    INDEX 01 00:00:00
  TRACK 02 AUDIO
    TITLE "Весна"
    PERFORMER "Кино"
    INDEX 00 03:28:00
FILE "02. Весна.m4a" WAVE
    INDEX 01 00:00:00
  TRACK 03 AUDIO
    TITLE "Уходи"
    PERFORMER "Кино"
    INDEX 00 01:58:38
FILE "03. Уходи.m4a" WAVE
    INDEX 01 00:00:00
  TRACK 04 AUDIO
    TITLE "Город"
    PERFORMER "Кино"
    INDEX 00 04:35:48
FILE "04. Город.m4a" WAVE
    INDEX 01 00:00:00
  TRACK 05 AUDIO
    TITLE "Рядом Со Мной"
    PERFORMER "Кино"
    INDEX 00 03:43:17
FILE "05. Рядом Со Мной.m4a" WAVE
    INDEX 01 00:00:00
  TRACK 06 AUDIO
    TITLE "Ты Выглядишь Так Несовременно"
    PERFORMER "Кино"
    INDEX 00 03:30:72
FILE "06. Ты Выглядишь Так Несовременно.m4a" WAVE
    INDEX 01 00:00:00
  TRACK 07 AUDIO
    TITLE "Я Обьявляю Свой Дом"
    PERFORMER "Кино"
    INDEX 00 03:49:22
FILE "07. Я Обьявляю Свой Дом.m4a" WAVE
    INDEX 01 00:00:00
  TRACK 08 AUDIO
    TITLE "Саша"
    PERFORMER "Кино"
    INDEX 00 02:20:45
FILE "08. Саша.m4a" WAVE
    INDEX 01 00:00:00
  TRACK 09 AUDIO
    TITLE "Верь Мне"
    PERFORMER "Кино"
    INDEX 00 03:14:52
FILE "09. Верь Мне.m4a" WAVE
    INDEX 01 00:00:00
  TRACK 10 AUDIO
    TITLE "Дети Проходных Дворов"
    PERFORMER "Кино"
    INDEX 00 05:32:07
FILE "10. Дети Проходных Дворов.m4a" WAVE
    INDEX 01 00:00:00
  TRACK 11 AUDIO
    TITLE "Музыка Волн"
    PERFORMER "Кино"
    INDEX 00 01:44:22
FILE "11. Музыка Волн.m4a" WAVE
    INDEX 01 00:00:00

1986 - Ночь (Austria - Moroz Records MR 94013 CD - 1994)

01. Видели ночь 3:19
02.
Фильмы 5:02
03.
Твой номер 3:34
04.
Танец 4:37
05.
Ночь 5:32
06.
Последний герой 2:18
07.
Жизнь в стеклах 3:26
08.
Мама Анархия 2:48
09.
Звезды останутся здесь 3:40
10.
Игра 5:03
11.
Мы хотим танцевать 4:02
Продолжительность: 43:20

Отчёт ЕАС

Exact Audio Copy V1.0 beta 3 from 29. August 2011
Отчёт EAC об извлечении, выполненном 7. мая 2013, 13:06
Кино / Ночь
Дисковод: PIONEER DVD-RW  DVR-215D   Adapter: 2  ID: 0
Режим чтения                 : Достоверность
Использование точного потока : Да
Отключение кэша аудио        : Да
Использование указателей C2  : Нет
Коррекция смещения при чтении                     : 48
Способность читать области Lead-in и Lead-out     : Нет
Заполнение пропущенных сэмплов тишиной            : Да
Удаление блоков с тишиной в начале и конце        : Нет
При вычислениях CRC использовались нулевые сэмплы : Да
Интерфейс                                         : Встроенный Win32-интерфейс для Win NT/2000
Выходной формат          : Пользовательский кодировщик
Выбранный битрейт        : 128 kBit/s
Качество                 : Высокий
Добавление ID3-тега      : Нет
Утилита сжатия           : C:\Program Files (x86)\Exact Audio Copy\Flac\flac.exe
Дополнительные параметры : -V -8 %source%
TOC извлечённого CD
     Трек |   Старт  | Длительность | Начальный сектор | Конечный сектор
    ---------------------------------------------------------------------
       1  |  0:00.00 |    3:19.35   |           0      |      14959
       2  |  3:19.35 |    5:01.65   |       14960      |      37599
       3  |  8:21.25 |    3:33.67   |       37600      |      53641
       4  | 11:55.17 |    4:37.13   |       53642      |      74429
       5  | 16:32.30 |    5:31.50   |       74430      |      99304
       6  | 22:04.05 |    2:18.02   |       99305      |     109656
       7  | 24:22.07 |    3:26.13   |      109657      |     125119
       8  | 27:48.20 |    2:47.52   |      125120      |     137696
       9  | 30:35.72 |    3:40.20   |      137697      |     154216
      10  | 34:16.17 |    5:03.20   |      154217      |     176961
      11  | 39:19.37 |    4:01.38   |      176962      |     195074
Характеристики диапазона извлечения и сообщения об ошибках
Выбранный диапазон
     Имя файла D:\МУЗЫКАЛЬНЫЙ АРХИВ\КИНО\sound\Кино (Виктор Цой) - Неремастированная CD-дискография (1989-1995)\1986-Ночь (1994)\Кино - Ночь.wav
     Пиковый уровень 87.5 %
     Скорость извлечения 6.9 X
     Качество диапазона 100.0 %
     CRC теста 98C7DEA0
     CRC копии 98C7DEA0
     Копирование... OK
Ошибок не произошло
Конец отчёта
==== Контрольная сумма отчёта 34DF94ECFC936CE9AA82AFB3D86164D114841E64E70B8B471E30E57B2E2A3750 ====

Содержание индексной карты (.CUE)

REM GENRE "Rock"
REM DATE 1994
REM DISCID 890A290B
REM COMMENT "ExactAudioCopy v1.0b3"
PERFORMER "Кино"
TITLE "1986 - Ночь (Austria - Moroz Records MR 94013 CD - 1994)"
FILE "01. Видели ночь.m4a" WAVE
  TRACK 01 AUDIO
    TITLE "Видели ночь"
    PERFORMER "Кино"
    INDEX 01 00:00:00
  TRACK 02 AUDIO
    TITLE "Фильмы"
    PERFORMER "Кино"
    INDEX 00 03:09:57
FILE "02. Фильмы.m4a" WAVE
    INDEX 01 00:00:00
  TRACK 03 AUDIO
    TITLE "Твой номер"
    PERFORMER "Кино"
    INDEX 00 04:54:40
FILE "03. Твой номер.m4a" WAVE
    INDEX 01 00:00:00
  TRACK 04 AUDIO
    TITLE "Танец"
    PERFORMER "Кино"
    INDEX 00 03:29:50
FILE "04. Танец.m4a" WAVE
    INDEX 01 00:00:00
  TRACK 05 AUDIO
    TITLE "Ночь"
    PERFORMER "Кино"
    INDEX 00 04:33:45
FILE "05. Ночь.m4a" WAVE
    INDEX 01 00:00:00
  TRACK 06 AUDIO
    TITLE "Последний герой"
    PERFORMER "Кино"
    INDEX 00 05:28:52
FILE "06. Последний герой.m4a" WAVE
    INDEX 01 00:00:00
  TRACK 07 AUDIO
    TITLE "Жизнь в стеклах"
    PERFORMER "Кино"
    INDEX 00 02:14:72
FILE "07. Жизнь в стеклах.m4a" WAVE
    INDEX 01 00:00:00
  TRACK 08 AUDIO
    TITLE "Мама Анархия"
    PERFORMER "Кино"
    INDEX 00 03:22:20
FILE "08. Мама Анархия.m4a" WAVE
    INDEX 01 00:00:00
  TRACK 09 AUDIO
    TITLE "Звезды останутся здесь"
    PERFORMER "Кино"
    INDEX 00 02:44:30
FILE "09. Звезды останутся здесь.m4a" WAVE
    INDEX 01 00:00:00
  TRACK 10 AUDIO
    TITLE "Игра"
    PERFORMER "Кино"
    INDEX 00 03:36:40
FILE "10. Игра.m4a" WAVE
    INDEX 01 00:00:00
  TRACK 11 AUDIO
    TITLE "Мы хотим танцевать"
    PERFORMER "Кино"
    INDEX 00 05:00:33
FILE "11. Мы хотим танцевать.m4a" WAVE
    INDEX 01 00:00:00

1986 - Ночь (Germany - Konzert Agentur Michael Friedmann Vol. 4 - 1995)

01. Видели ночь 3:18
02.
Фильмы 5:02
03.
Твой номер 3:34
04.
Танец 4:37
05.
Ночь 5:32
06.
Последний герой 2:18
07.
Жизнь в стеклах 3:26
08.
Мама Анархия 2:48
09.
Звезды останутся здесь 3:40
10.
Игра 5:03
11.
Мы хотим танцевать 4:00
Продолжительность: 43:18

Отчёт ЕАС

Exact Audio Copy V1.0 beta 3 from 29. August 2011
Отчёт EAC об извлечении, выполненном 7. мая 2013, 13:26
Кино / Ночь (MF-Vol. 4)
Дисковод: PIONEER DVD-RW  DVR-215D   Adapter: 2  ID: 0
Режим чтения                 : Достоверность
Использование точного потока : Да
Отключение кэша аудио        : Да
Использование указателей C2  : Нет
Коррекция смещения при чтении                     : 48
Способность читать области Lead-in и Lead-out     : Нет
Заполнение пропущенных сэмплов тишиной            : Да
Удаление блоков с тишиной в начале и конце        : Нет
При вычислениях CRC использовались нулевые сэмплы : Да
Интерфейс                                         : Встроенный Win32-интерфейс для Win NT/2000
Выходной формат          : Пользовательский кодировщик
Выбранный битрейт        : 128 kBit/s
Качество                 : Высокий
Добавление ID3-тега      : Нет
Утилита сжатия           : C:\Program Files (x86)\Exact Audio Copy\Flac\flac.exe
Дополнительные параметры : -V -8 %source%
TOC извлечённого CD
     Трек |   Старт  | Длительность | Начальный сектор | Конечный сектор
    ---------------------------------------------------------------------
       1  |  0:00.00 |    3:18.18   |           0      |      14867
       2  |  3:18.18 |    5:01.67   |       14868      |      37509
       3  |  8:20.10 |    3:34.03   |       37510      |      53562
       4  | 11:54.13 |    4:36.55   |       53563      |      74317
       5  | 16:30.68 |    5:31.62   |       74318      |      99204
       6  | 22:02.55 |    2:18.20   |       99205      |     109574
       7  | 24:21.00 |    3:26.03   |      109575      |     125027
       8  | 27:47.03 |    2:47.55   |      125028      |     137607
       9  | 30:34.58 |    3:40.22   |      137608      |     154129
      10  | 34:15.05 |    5:03.20   |      154130      |     176874
      11  | 39:18.25 |    4:00.03   |      176875      |     194877
Характеристики диапазона извлечения и сообщения об ошибках
Выбранный диапазон
     Имя файла D:\МУЗЫКАЛЬНЫЙ АРХИВ\КИНО\sound\Кино (Виктор Цой) - Неремастированная CD-дискография (1989-1995)\1986-Ночь (MF (Михаил Фридман) Vol. 4 1995)\Кино - Ночь (MF-Vol. 4).wav
     Пиковый уровень 87.4 %
     Скорость извлечения 6.9 X
     Качество диапазона 100.0 %
     CRC теста 2538435B
     CRC копии 2538435B
     Копирование... OK
Ошибок не произошло
Конец отчёта
==== Контрольная сумма отчёта 9243E50BD97478099999E3A514DDD4C604C78A0B2AD8CBD8E74537E01AA3A269 ====

Содержание индексной карты (.CUE)

REM GENRE "Rock"
REM DATE 1995
REM DISCID 860A260B
REM COMMENT "ExactAudioCopy v1.0b3"
PERFORMER "Кино"
TITLE "1986 - Ночь (Germany - Konzert Agentur Michael Friedmann Vol. 4 - 1995)"
FILE "01. Видели ночь.m4a" WAVE
  TRACK 01 AUDIO
    TITLE "Видели ночь"
    PERFORMER "Кино"
    INDEX 01 00:00:00
  TRACK 02 AUDIO
    TITLE "Фильмы"
    PERFORMER "Кино"
    INDEX 00 03:07:00
FILE "02. Фильмы.m4a" WAVE
    INDEX 01 00:00:00
  TRACK 03 AUDIO
    TITLE "Твой номер"
    PERFORMER "Кино"
    INDEX 00 04:52:72
FILE "03. Твой номер.m4a" WAVE
    INDEX 01 00:00:00
  TRACK 04 AUDIO
    TITLE "Танец"
    PERFORMER "Кино"
    INDEX 00 03:28:18
FILE "04. Танец.m4a" WAVE
    INDEX 01 00:00:00
  TRACK 05 AUDIO
    TITLE "Ночь"
    PERFORMER "Кино"
    INDEX 00 04:31:37
FILE "05. Ночь.m4a" WAVE
    INDEX 01 00:00:00
  TRACK 06 AUDIO
    TITLE "Последний герой"
    PERFORMER "Кино"
    INDEX 00 05:27:12
FILE "06. Последний герой.m4a" WAVE
    INDEX 01 00:00:00
  TRACK 07 AUDIO
    TITLE "Жизнь в стеклах"
    PERFORMER "Кино"
    INDEX 00 02:13:33
FILE "07. Жизнь в стеклах.m4a" WAVE
    INDEX 01 00:00:00
  TRACK 08 AUDIO
    TITLE "Мама Анархия"
    PERFORMER "Кино"
    INDEX 00 03:21:03
FILE "08. Мама Анархия.m4a" WAVE
    INDEX 01 00:00:00
  TRACK 09 AUDIO
    TITLE "Звезды останутся здесь"
    PERFORMER "Кино"
    INDEX 00 02:42:55
FILE "09. Звезды останутся здесь.m4a" WAVE
    INDEX 01 00:00:00
  TRACK 10 AUDIO
    TITLE "Игра"
    PERFORMER "Кино"
    INDEX 00 03:35:07
FILE "10. Игра.m4a" WAVE
    INDEX 01 00:00:00
  TRACK 11 AUDIO
    TITLE "Мы хотим танцевать"
    PERFORMER "Кино"
    INDEX 00 04:59:48
FILE "11. Мы хотим танцевать.m4a" WAVE
    INDEX 01 00:00:00

1988 - Blood Type (Japan - Gold Castle Records VDP-1511 - 1989)

01. Blood Type 4:47
02.
Shut the Door Behind Me 4:16
03.
War 4:05
04.
Good Night 6:08
05.
We Are All Sick, Mama 4:08
06.
Boshetunmay 4:09
07.
In Our Eyes 3:35
08.
Try to Sing Along 4:36
09.
Hey You, You Better Keep Walking! 3:40
10.
It's Our Time, Our Turn! 3:57
11.
The Legend 4:10
Продолжительность: 47:31

Отчёт ЕАС

Exact Audio Copy V1.0 beta 3 from 29. August 2011
Отчёт EAC об извлечении, выполненном 7. мая 2013, 14:05
Кино / Группа Крови (Japan VDP-1511)
Дисковод: PIONEER DVD-RW  DVR-215D   Adapter: 2  ID: 0
Режим чтения                 : Достоверность
Использование точного потока : Да
Отключение кэша аудио        : Да
Использование указателей C2  : Нет
Коррекция смещения при чтении                     : 48
Способность читать области Lead-in и Lead-out     : Нет
Заполнение пропущенных сэмплов тишиной            : Да
Удаление блоков с тишиной в начале и конце        : Нет
При вычислениях CRC использовались нулевые сэмплы : Да
Интерфейс                                         : Встроенный Win32-интерфейс для Win NT/2000
Выходной формат          : Пользовательский кодировщик
Выбранный битрейт        : 128 kBit/s
Качество                 : Высокий
Добавление ID3-тега      : Нет
Утилита сжатия           : C:\Program Files (x86)\Exact Audio Copy\Flac\flac.exe
Дополнительные параметры : -V -8 %source%
TOC извлечённого CD
     Трек |   Старт  | Длительность | Начальный сектор | Конечный сектор
    ---------------------------------------------------------------------
       1  |  0:00.37 |    4:47.10   |          37      |      21571
       2  |  4:47.47 |    4:16.25   |       21572      |      40796
       3  |  9:03.72 |    4:04.53   |       40797      |      59149
       4  | 13:08.50 |    6:08.00   |       59150      |      86749
       5  | 19:16.50 |    4:07.67   |       86750      |     105341
       6  | 23:24.42 |    4:09.33   |      105342      |     124049
       7  | 27:34.00 |    3:34.55   |      124050      |     140154
       8  | 31:08.55 |    4:36.07   |      140155      |     160861
       9  | 35:44.62 |    3:40.08   |      160862      |     177369
      10  | 39:24.70 |    3:56.60   |      177370      |     195129
      11  | 43:21.55 |    4:10.25   |      195130      |     213904
Характеристики диапазона извлечения и сообщения об ошибках
Выбранный диапазон
     Имя файла D:\МУЗЫКАЛЬНЫЙ АРХИВ\КИНО\sound\Кино (Виктор Цой) - Неремастированная CD-дискография (1989-1995)\1988-Группа крови (1990 Japan, VDP-1511)\Кино - Группа Крови (Japan VDP-1511).wav
     Пиковый уровень 98.4 %
     Скорость извлечения 7.0 X
     Качество диапазона 100.0 %
     CRC теста 4D6FA71C
     CRC копии 4D6FA71C
     Копирование... OK
Ошибок не произошло
Конец отчёта
==== Контрольная сумма отчёта F64BBF84555B7305EC754E969573E9E7CBD134AEAD5C883B25B82403B04590BE ====

Содержание индексной карты (.CUE)

REM GENRE "Rock"
REM DATE 1989
REM DISCID 980B240B
REM COMMENT "ExactAudioCopy v1.0b3"
PERFORMER "Кино"
TITLE "1988 - Blood Type (Japan - Gold Castle Records VDP-1511 - 1989)"
FILE "01. Blood Type.m4a" WAVE
  TRACK 01 AUDIO
    TITLE "Blood Type"
    PERFORMER "Кино"
    PREGAP 00:00:37
    INDEX 01 00:00:00
  TRACK 02 AUDIO
    TITLE "Shut the Door Behind Me"
    PERFORMER "Кино"
    INDEX 00 04:46:10
FILE "02. Shut the Door Behind Me.m4a" WAVE
    INDEX 01 00:00:00
  TRACK 03 AUDIO
    TITLE "War"
    PERFORMER "Кино"
    INDEX 00 04:15:26
FILE "03. War.m4a" WAVE
    INDEX 01 00:00:00
  TRACK 04 AUDIO
    TITLE "Good Night"
    PERFORMER "Кино"
    INDEX 00 04:03:53
FILE "04. Good Night.m4a" WAVE
    INDEX 01 00:00:00
  TRACK 05 AUDIO
    TITLE "We Are All Sick, Mama"
    PERFORMER "Кино"
    INDEX 00 06:07:00
FILE "05. We Are All Sick, Mama.m4a" WAVE
    INDEX 01 00:00:00
  TRACK 06 AUDIO
    TITLE "Boshetunmay"
    PERFORMER "Кино"
    INDEX 00 04:06:29
FILE "06. Boshetunmay.m4a" WAVE
    INDEX 01 00:00:00
  TRACK 07 AUDIO
    TITLE "In Our Eyes"
    PERFORMER "Кино"
    INDEX 00 04:08:34
FILE "07. In Our Eyes.m4a" WAVE
    INDEX 01 00:00:00
  TRACK 08 AUDIO
    TITLE "Try to Sing Along"
    PERFORMER "Кино"
    INDEX 00 03:33:55
FILE "08. Try to Sing Along.m4a" WAVE
    INDEX 01 00:00:00
  TRACK 09 AUDIO
    TITLE "Hey You, You Better Keep Walking!"
    PERFORMER "Кино"
    INDEX 00 04:35:08
FILE "09. Hey You, You Better Keep Walking!.m4a" WAVE
    INDEX 01 00:00:00
  TRACK 10 AUDIO
    TITLE "It's Our Time, Our Turn!"
    PERFORMER "Кино"
    INDEX 00 03:38:45
FILE "10. It's Our Time, Our Turn!.m4a" WAVE
    INDEX 01 00:00:00
  TRACK 11 AUDIO
    TITLE "The Legend"
    PERFORMER "Кино"
    INDEX 00 03:55:61
FILE "11. The Legend.m4a" WAVE
    INDEX 01 00:00:00

1988 - Blood Type (USA - Gold Castle Records D2-71322 - 1989)

01. Blood Type 4:47
02.
Shut the Door Behind Me 4:17
03.
War 4:05
04.
Good Night 6:08
05.
We Are All Sick, Mama 4:08
06.
Boshetunmay 4:10
07.
In Our Eyes 3:35
08.
Try to Sing Along 4:36
09.
Hey You, You Better Keep Walking! 3:39
10.
It's Our Time, Our Turn! 3:58
11.
The Legend 4:09
Продолжительность: 47:30

Отчёт ЕАС

Exact Audio Copy V1.0 beta 3 from 29. August 2011
Отчёт EAC об извлечении, выполненном 7. мая 2013, 13:46
Кино / Группа Крови (Gold Castle Records USA)
Дисковод: PIONEER DVD-RW  DVR-215D   Adapter: 2  ID: 0
Режим чтения                 : Достоверность
Использование точного потока : Да
Отключение кэша аудио        : Да
Использование указателей C2  : Нет
Коррекция смещения при чтении                     : 48
Способность читать области Lead-in и Lead-out     : Нет
Заполнение пропущенных сэмплов тишиной            : Да
Удаление блоков с тишиной в начале и конце        : Нет
При вычислениях CRC использовались нулевые сэмплы : Да
Интерфейс                                         : Встроенный Win32-интерфейс для Win NT/2000
Выходной формат          : Пользовательский кодировщик
Выбранный битрейт        : 128 kBit/s
Качество                 : Высокий
Добавление ID3-тега      : Нет
Утилита сжатия           : C:\Program Files (x86)\Exact Audio Copy\Flac\flac.exe
Дополнительные параметры : -V -8 %source%
TOC извлечённого CD
     Трек |   Старт  | Длительность | Начальный сектор | Конечный сектор
    ---------------------------------------------------------------------
       1  |  0:00.00 |    4:46.47   |           0      |      21496
       2  |  4:46.47 |    4:17.20   |       21497      |      40791
       3  |  9:03.67 |    4:04.53   |       40792      |      59144
       4  | 13:08.45 |    6:07.72   |       59145      |      86741
       5  | 19:16.42 |    4:07.55   |       86742      |     105321
       6  | 23:24.22 |    4:10.03   |      105322      |     124074
       7  | 27:34.25 |    3:34.65   |      124075      |     140189
       8  | 31:09.15 |    4:36.15   |      140190      |     160904
       9  | 35:45.30 |    3:38.47   |      160905      |     177301
      10  | 39:24.02 |    3:58.20   |      177302      |     195171
      11  | 43:22.22 |    4:08.40   |      195172      |     213811
Характеристики диапазона извлечения и сообщения об ошибках
Выбранный диапазон
     Имя файла D:\МУЗЫКАЛЬНЫЙ АРХИВ\КИНО\sound\Кино (Виктор Цой) - Неремастированная CD-дискография (1989-1995)\1988-Группа крови (1989 Gold Castle Records USA)\Кино - Группа Крови (Gold Castle Records USA).wav
     Пиковый уровень 98.4 %
     Скорость извлечения 7.1 X
     Качество диапазона 100.0 %
     CRC теста 33DA85FC
     CRC копии 33DA85FC
     Копирование... OK
Ошибок не произошло
Конец отчёта
==== Контрольная сумма отчёта C790EDFCF2BB6C88AAB6C451FA10FA3315E2288496B66EB0C8FFC1354ADE1DBD ====

Содержание индексной карты (.CUE)

REM GENRE "Rock"
REM DATE 1989
REM DISCID 9A0B220B
REM COMMENT "ExactAudioCopy v1.0b3"
PERFORMER "Кино"
TITLE "1988 - Blood Type (USA - Gold Castle Records D2-71322 - 1989)"
FILE "01. Blood Type.m4a" WAVE
  TRACK 01 AUDIO
    TITLE "Blood Type"
    PERFORMER "Кино"
    INDEX 01 00:00:00
  TRACK 02 AUDIO
    TITLE "Shut the Door Behind Me"
    PERFORMER "Кино"
    INDEX 00 04:45:72
FILE "02. Shut the Door Behind Me.m4a" WAVE
    INDEX 01 00:00:00
  TRACK 03 AUDIO
    TITLE "War"
    PERFORMER "Кино"
    INDEX 00 04:15:73
FILE "03. War.m4a" WAVE
    INDEX 01 00:00:00
  TRACK 04 AUDIO
    TITLE "Good Night"
    PERFORMER "Кино"
    INDEX 00 04:02:73
FILE "04. Good Night.m4a" WAVE
    INDEX 01 00:00:00
  TRACK 05 AUDIO
    TITLE "We Are All Sick, Mama"
    PERFORMER "Кино"
    INDEX 00 06:06:30
FILE "05. We Are All Sick, Mama.m4a" WAVE
    INDEX 01 00:00:00
  TRACK 06 AUDIO
    TITLE "Boshetunmay"
    PERFORMER "Кино"
    INDEX 00 04:06:03
FILE "06. Boshetunmay.m4a" WAVE
    INDEX 01 00:00:00
  TRACK 07 AUDIO
    TITLE "In Our Eyes"
    PERFORMER "Кино"
    INDEX 00 04:08:10
FILE "07. In Our Eyes.m4a" WAVE
    INDEX 01 00:00:00
  TRACK 08 AUDIO
    TITLE "Try to Sing Along"
    PERFORMER "Кино"
    INDEX 00 03:33:50
FILE "08. Try to Sing Along.m4a" WAVE
    INDEX 01 00:00:00
  TRACK 09 AUDIO
    TITLE "Hey You, You Better Keep Walking!"
    PERFORMER "Кино"
    INDEX 00 04:35:20
FILE "09. Hey You, You Better Keep Walking!.m4a" WAVE
    INDEX 01 00:00:00
  TRACK 10 AUDIO
    TITLE "It's Our Time, Our Turn!"
    PERFORMER "Кино"
    INDEX 00 03:36:72
FILE "10. It's Our Time, Our Turn!.m4a" WAVE
    INDEX 01 00:00:00
  TRACK 11 AUDIO
    TITLE "The Legend"
    PERFORMER "Кино"
    INDEX 00 03:57:18
FILE "11. The Legend.m4a" WAVE
    INDEX 01 00:00:00

1988 - Группа Крови (Austria - General Records GR-90-204 - 1994)

01. Группа крови 4:46
02.
Закрой за мной дверь 4:17
03.
Война 4:04
04.
Спокойная ночь 6:08
05.
Мама,мы все сошли с ума 4:08
06.
Бошетунмай 4:10
07.
В наших глазах 3:35
08.
Попробуй спеть вместе со мной 4:36
09.
Прохожий 3:40
10.
Дальше действовать будем мы 3:56
11.
Легенда 4:10
Продолжительность: 47:29

Отчёт ЕАС

Exact Audio Copy V1.0 beta 3 from 29. August 2011
Отчёт EAC об извлечении, выполненном 7. мая 2013, 14:24
Кино / Группа крови
Дисковод: PIONEER DVD-RW  DVR-215D   Adapter: 2  ID: 0
Режим чтения                 : Достоверность
Использование точного потока : Да
Отключение кэша аудио        : Да
Использование указателей C2  : Нет
Коррекция смещения при чтении                     : 48
Способность читать области Lead-in и Lead-out     : Нет
Заполнение пропущенных сэмплов тишиной            : Да
Удаление блоков с тишиной в начале и конце        : Нет
При вычислениях CRC использовались нулевые сэмплы : Да
Интерфейс                                         : Встроенный Win32-интерфейс для Win NT/2000
Выходной формат          : Пользовательский кодировщик
Выбранный битрейт        : 128 kBit/s
Качество                 : Высокий
Добавление ID3-тега      : Нет
Утилита сжатия           : C:\Program Files (x86)\Exact Audio Copy\Flac\flac.exe
Дополнительные параметры : -V -8 %source%
TOC извлечённого CD
     Трек |   Старт  | Длительность | Начальный сектор | Конечный сектор
    ---------------------------------------------------------------------
       1  |  0:00.00 |    4:46.00   |           0      |      21449
       2  |  4:46.00 |    4:17.00   |       21450      |      40724
       3  |  9:03.00 |    4:04.00   |       40725      |      59024
       4  | 13:07.00 |    6:08.00   |       59025      |      86624
       5  | 19:15.00 |    4:08.00   |       86625      |     105224
       6  | 23:23.00 |    4:10.00   |      105225      |     123974
       7  | 27:33.00 |    3:34.55   |      123975      |     140079
       8  | 31:07.55 |    4:36.20   |      140080      |     160799
       9  | 35:44.00 |    3:40.00   |      160800      |     177299
      10  | 39:24.00 |    3:56.25   |      177300      |     195024
      11  | 43:20.25 |    4:09.50   |      195025      |     213749
Характеристики диапазона извлечения и сообщения об ошибках
Выбранный диапазон
     Имя файла D:\МУЗЫКАЛЬНЫЙ АРХИВ\КИНО\sound\Кино (Виктор Цой) - Неремастированная CD-дискография (1989-1995)\1988-Группа крови (1993, GR-90-204 Sony DADC)\Кино - Группа крови.wav
     Пиковый уровень 90.6 %
     Скорость извлечения 7.0 X
     Качество диапазона 100.0 %
     CRC теста 1AB7E3BE
     CRC копии 1AB7E3BE
     Копирование... OK
Ошибок не произошло
Конец отчёта
==== Контрольная сумма отчёта 0C34BD7AF9AFB3375CC95E22ECE8BC5B6AE9F690D2C040F54964CE055B6A9010 ====

Содержание индексной карты (.CUE)

REM GENRE "Rock"
REM DATE 1994
REM DISCID A30B220B
REM COMMENT "ExactAudioCopy v1.0b3"
PERFORMER "Кино"
TITLE "1988 - Группа Крови (Austria - General Records GR-90-204 - 1994)"
FILE "01. Группа крови.m4a" WAVE
  TRACK 01 AUDIO
    TITLE "Группа крови"
    PERFORMER "Кино"
    INDEX 01 00:00:00
  TRACK 02 AUDIO
    TITLE "Закрой за мной дверь"
    PERFORMER "Кино"
    INDEX 00 04:45:00
FILE "02. Закрой за мной дверь.m4a" WAVE
    INDEX 01 00:00:00
  TRACK 03 AUDIO
    TITLE "Война"
    PERFORMER "Кино"
    INDEX 00 04:16:00
FILE "03. Война.m4a" WAVE
    INDEX 01 00:00:00
  TRACK 04 AUDIO
    TITLE "Спокойная ночь"
    PERFORMER "Кино"
    INDEX 00 04:03:00
FILE "04. Спокойная ночь.m4a" WAVE
    INDEX 01 00:00:00
  TRACK 05 AUDIO
    TITLE "Мама, мы все сошли с ума"
    PERFORMER "Кино"
    INDEX 00 06:07:00
FILE "05. Мама, мы все сошли с ума.m4a" WAVE
    INDEX 01 00:00:00
  TRACK 06 AUDIO
    TITLE "Бошетунмай"
    PERFORMER "Кино"
    INDEX 00 04:07:00
FILE "06. Бошетунмай.m4a" WAVE
    INDEX 01 00:00:00
  TRACK 07 AUDIO
    TITLE "В наших глазах"
    PERFORMER "Кино"
    INDEX 00 04:09:00
FILE "07. В наших глазах.m4a" WAVE
    INDEX 01 00:00:00
  TRACK 08 AUDIO
    TITLE "Попробуй спеть вместе со мной"
    PERFORMER "Кино"
    INDEX 00 03:34:00
FILE "08. Попробуй спеть вместе со мной.m4a" WAVE
    INDEX 01 00:00:00
  TRACK 09 AUDIO
    TITLE "Прохожий"
    PERFORMER "Кино"
    INDEX 00 04:35:20
FILE "09. Прохожий.m4a" WAVE
    INDEX 01 00:00:00
  TRACK 10 AUDIO
    TITLE "Дальше действовать будем мы"
    PERFORMER "Кино"
    INDEX 00 03:39:00
FILE "10. Дальше действовать будем мы.m4a" WAVE
    INDEX 01 00:00:00
  TRACK 11 AUDIO
    TITLE "Легенда"
    PERFORMER "Кино"
    INDEX 00 03:55:25
FILE "11. Легенда.m4a" WAVE
    INDEX 01 00:00:00

1988 - Группа Крови (Germany - Konzert Agentur Michael Friedmann Vol. 3 - 1995)

01. Группа крови 4:47
02.
Закрой за мной дверь 4:16
03.
Война 4:05
04.
Спокойная ночь 6:08
05.
Мама,мы все сошли с ума 4:08
06.
Бошетунмай 4:09
07.
В наших глазах 3:35
08.
Попробуй спеть вместе со мной 4:36
09.
Прохожий 3:40
10.
Дальше действовать будем мы 3:57
11.
Легенда 4:09
Продолжительность: 47:30

Отчёт ЕАС

Exact Audio Copy V1.0 beta 3 from 29. August 2011
Отчёт EAC об извлечении, выполненном 7. мая 2013, 14:42
Кино / Группа Крови (MF-Vol. 3)
Дисковод: PIONEER DVD-RW  DVR-215D   Adapter: 2  ID: 0
Режим чтения                 : Достоверность
Использование точного потока : Да
Отключение кэша аудио        : Да
Использование указателей C2  : Нет
Коррекция смещения при чтении                     : 48
Способность читать области Lead-in и Lead-out     : Нет
Заполнение пропущенных сэмплов тишиной            : Да
Удаление блоков с тишиной в начале и конце        : Нет
При вычислениях CRC использовались нулевые сэмплы : Да
Интерфейс                                         : Встроенный Win32-интерфейс для Win NT/2000
Выходной формат          : Пользовательский кодировщик
Выбранный битрейт        : 128 kBit/s
Качество                 : Высокий
Добавление ID3-тега      : Нет
Утилита сжатия           : C:\Program Files (x86)\Exact Audio Copy\Flac\flac.exe
Дополнительные параметры : -V -8 %source%
TOC извлечённого CD
     Трек |   Старт  | Длительность | Начальный сектор | Конечный сектор
    ---------------------------------------------------------------------
       1  |  0:00.00 |    4:46.65   |           0      |      21514
       2  |  4:46.65 |    4:16.28   |       21515      |      40742
       3  |  9:03.18 |    4:04.60   |       40743      |      59102
       4  | 13:08.03 |    6:07.72   |       59103      |      86699
       5  | 19:16.00 |    4:07.68   |       86700      |     105292
       6  | 23:23.68 |    4:09.35   |      105293      |     124002
       7  | 27:33.28 |    3:34.57   |      124003      |     140109
       8  | 31:08.10 |    4:36.03   |      140110      |     160812
       9  | 35:44.13 |    3:40.07   |      160813      |     177319
      10  | 39:24.20 |    3:56.68   |      177320      |     195087
      11  | 43:21.13 |    4:09.20   |      195088      |     213782
Характеристики диапазона извлечения и сообщения об ошибках
Выбранный диапазон
     Имя файла D:\МУЗЫКАЛЬНЫЙ АРХИВ\КИНО\sound\Кино (Виктор Цой) - Неремастированная CD-дискография (1989-1995)\1988-Группа крови (MF (Михаил Фридман) Vol. 3 1995)\Кино - Группа Крови (MF-Vol. 3).wav
     Пиковый уровень 90.6 %
     Скорость извлечения 7.1 X
     Качество диапазона 100.0 %
     CRC теста E769307F
     CRC копии E769307F
     Копирование... OK
Ошибок не произошло
Конец отчёта
==== Контрольная сумма отчёта 3AADEA11EC868AD7358F92EADF288BE0E9FC1EB44F2FA10B352990BBA112A7FB ====

Содержание индексной карты (.CUE)

REM GENRE "Rock"
REM DATE 1995
REM DISCID 950B220B
REM COMMENT "ExactAudioCopy v1.0b3"
PERFORMER "Кино"
TITLE "1988 - Группа Крови (Germany - Konzert Agentur Michael Friedmann Vol. 3 - 1995)"
FILE "01. Группа Крови.m4a" WAVE
  TRACK 01 AUDIO
    TITLE "Группа Крови"
    PERFORMER "Кино"
    INDEX 01 00:00:00
  TRACK 02 AUDIO
    TITLE "Закрой За Мной Дверь, Я Ухожу"
    PERFORMER "Кино"
    INDEX 00 04:45:30
FILE "02. Закрой За Мной Дверь, Я Ухожу.m4a" WAVE
    INDEX 01 00:00:00
  TRACK 03 AUDIO
    TITLE "Война"
    PERFORMER "Кино"
    INDEX 00 04:15:08
FILE "03. Война.m4a" WAVE
    INDEX 01 00:00:00
  TRACK 04 AUDIO
    TITLE "Спокойная Ночь"
    PERFORMER "Кино"
    INDEX 00 04:03:25
FILE "04. Спокойная Ночь.m4a" WAVE
    INDEX 01 00:00:00
  TRACK 05 AUDIO
    TITLE "Мама, Мы Все Сошли С Ума"
    PERFORMER "Кино"
    INDEX 00 06:06:32
FILE "05. Мама, Мы Все Сошли С Ума.m4a" WAVE
    INDEX 01 00:00:00
  TRACK 06 AUDIO
    TITLE "Бошетунмай"
    PERFORMER "Кино"
    INDEX 00 04:06:23
FILE "06. Бошетунмай.m4a" WAVE
    INDEX 01 00:00:00
  TRACK 07 AUDIO
    TITLE "В Наших Глазах"
    PERFORMER "Кино"
    INDEX 00 04:08:02
FILE "07. В Наших Глазах.m4a" WAVE
    INDEX 01 00:00:00
  TRACK 08 AUDIO
    TITLE "Попробуй Спеть Вместе Со Мной"
    PERFORMER "Кино"
    INDEX 00 03:33:32
FILE "08. Попробуй Спеть Вместе Со Мной.m4a" WAVE
    INDEX 01 00:00:00
  TRACK 09 AUDIO
    TITLE "Прохожий"
    PERFORMER "Кино"
    INDEX 00 04:34:63
FILE "09. Прохожий.m4a" WAVE
    INDEX 01 00:00:00
  TRACK 10 AUDIO
    TITLE "Дальше Действовать Будем Мы"
    PERFORMER "Кино"
    INDEX 00 03:38:12
FILE "10. Дальше Действовать Будем Мы.m4a" WAVE
    INDEX 01 00:00:00
  TRACK 11 AUDIO
    TITLE "Легенда"
    PERFORMER "Кино"
    INDEX 00 03:55:60
FILE "11. Легенда.m4a" WAVE
    INDEX 01 00:00:00

1989 - Звезда По Имени Солнце (Austria - General Records GR-90-205 - 1994)

01. Песня без слов 5:07
02.
Звезда по имени Солнце 3:46
03.
Невеселая Песня 4:21
04.
Сказка 6:00
05.
Место для шага вперед 3:41
06.
Пачка сигарет 4:28
07.
Стук 3:52
08.
Печаль 5:32
09.
Апрель 4:38
Продолжительность: 41:25

Отчёт ЕАС

Exact Audio Copy V1.0 beta 3 from 29. August 2011
Отчёт EAC об извлечении, выполненном 1. апреля 2013, 14:39
Кино / Звезда по имени Солнце
Дисковод: PIONEER DVD-RW  DVR-212D   Adapter: 1  ID: 0
Режим чтения                 : Достоверность
Использование точного потока : Да
Отключение кэша аудио        : Да
Использование указателей C2  : Нет
Коррекция смещения при чтении                     : 48
Способность читать области Lead-in и Lead-out     : Нет
Заполнение пропущенных сэмплов тишиной            : Да
Удаление блоков с тишиной в начале и конце        : Нет
При вычислениях CRC использовались нулевые сэмплы : Да
Интерфейс                                         : Встроенный Win32-интерфейс для Win NT/2000
Выходной формат : Внутренние WAV-операции
Формат сэмплов  : 44.100 Гц; 16 бит; стерео
TOC извлечённого CD
     Трек |   Старт  | Длительность | Начальный сектор | Конечный сектор
    ---------------------------------------------------------------------
       1  |  0:00.00 |    5:07.37   |           0      |      23061
       2  |  5:07.37 |    3:45.50   |       23062      |      39986
       3  |  8:53.12 |    4:21.25   |       39987      |      59586
       4  | 13:14.37 |    5:59.50   |       59587      |      86561
       5  | 19:14.12 |    3:41.25   |       86562      |     103161
       6  | 22:55.37 |    4:28.00   |      103162      |     123261
       7  | 27:23.37 |    3:52.00   |      123262      |     140661
       8  | 31:15.37 |    5:32.00   |      140662      |     165561
       9  | 36:47.37 |    4:38.00   |      165562      |     186411
Характеристики диапазона извлечения и сообщения об ошибках
Выбранный диапазон
     Имя файла D:\CDR\Кино - Звезда по имени Солнце (GR-90-205) Austria\Кино - Звезда по имени Солнце.wav
     Пиковый уровень 96.1 %
     Скорость извлечения 6.6 X
     Качество диапазона 100.0 %
     CRC копии 707E8C78
     Копирование... OK
Ошибок не произошло
AccurateRip: сводка
Трек  1  : извлечено точно (доверие 10)  [49FC31CC]  (AR v1)
Трек  2  : извлечено точно (доверие 10)  [0F3072E9]  (AR v1)
Трек  3  : извлечено точно (доверие 10)  [4A6B22A1]  (AR v1)
Трек  4  : извлечено точно (доверие 10)  [51F48071]  (AR v1)
Трек  5  : извлечено точно (доверие 10)  [1BD0E2D2]  (AR v1)
Трек  6  : извлечено точно (доверие 10)  [E8BB900F]  (AR v1)
Трек  7  : извлечено точно (доверие 10)  [692A844E]  (AR v1)
Трек  8  : извлечено точно (доверие 10)  [727DF4F0]  (AR v1)
Трек  9  : извлечено точно (доверие 9)  [11AF688C]  (AR v1)
Все треки извлечены точно
Конец отчёта

Содержание индексной карты (.CUE)

REM GENRE "Rock"
REM DATE 1994
REM DISCID 8409B509
REM COMMENT "ExactAudioCopy v1.0b3"
PERFORMER "Кино"
TITLE "1989 - Звезда По Имени Солнце (Austria - General Records GR-90-205 - 1994)"
FILE "01. Песня без слов.m4a" WAVE
  TRACK 01 AUDIO
    TITLE "Песня без слов"
    PERFORMER "Кино"
    INDEX 01 00:00:00
  TRACK 02 AUDIO
    TITLE "Звезда по имени Солнце"
    PERFORMER "Кино"
    INDEX 00 05:06:37
FILE "02. Звезда по имени Солнце.m4a" WAVE
    INDEX 01 00:00:00
  TRACK 03 AUDIO
    TITLE "Невеселая песня"
    PERFORMER "Кино"
    INDEX 00 03:45:00
FILE "03. Невеселая песня.m4a" WAVE
    INDEX 01 00:00:00
  TRACK 04 AUDIO
    TITLE "Сказка"
    PERFORMER "Кино"
    INDEX 00 04:17:25
FILE "04. Сказка.m4a" WAVE
    INDEX 01 00:00:00
  TRACK 05 AUDIO
    TITLE "Место для шага вперед"
    PERFORMER "Кино"
    INDEX 00 05:58:00
FILE "05. Место для шага вперед.m4a" WAVE
    INDEX 01 00:00:00
  TRACK 06 AUDIO
    TITLE "Пачка сигарет"
    PERFORMER "Кино"
    INDEX 00 03:38:38
FILE "06. Пачка сигарет.m4a" WAVE
    INDEX 01 00:00:00
  TRACK 07 AUDIO
    TITLE "Стук"
    PERFORMER "Кино"
    INDEX 00 04:27:00
FILE "07. Стук.m4a" WAVE
    INDEX 01 00:00:00
  TRACK 08 AUDIO
    TITLE "Печаль"
    PERFORMER "Кино"
    INDEX 00 03:50:00
FILE "08. Печаль.m4a" WAVE
    INDEX 01 00:00:00
  TRACK 09 AUDIO
    TITLE "Апрель"
    PERFORMER "Кино"
    INDEX 00 05:31:00
FILE "09. Апрель.m4a" WAVE
    INDEX 01 00:00:00

1989 - Звезда По Имени Солнце (Germany - Konzert Agentur Michael Friedmann Vol. 2 - 1995)

01. Песня без слов 5:08
02.
Звезда по имени Солнце 3:46
03.
Невеселая Песня 4:21
04.
Сказка 6:00
05.
Место для шага вперед 3:39
06.
Пачка сигарет 4:31
07.
Стук 3:51
08.
Печаль 5:32
09.
Апрель 4:38
Продолжительность: 41:25

Отчёт ЕАС

Exact Audio Copy V1.0 beta 3 from 29. August 2011
Отчёт EAC об извлечении, выполненном 7. мая 2013, 14:58
Кино / Звезда по имени Солнце (MF-Vol. 2)
Дисковод: PIONEER DVD-RW  DVR-215D   Adapter: 2  ID: 0
Режим чтения                 : Достоверность
Использование точного потока : Да
Отключение кэша аудио        : Да
Использование указателей C2  : Нет
Коррекция смещения при чтении                     : 48
Способность читать области Lead-in и Lead-out     : Нет
Заполнение пропущенных сэмплов тишиной            : Да
Удаление блоков с тишиной в начале и конце        : Нет
При вычислениях CRC использовались нулевые сэмплы : Да
Интерфейс                                         : Встроенный Win32-интерфейс для Win NT/2000
Выходной формат          : Пользовательский кодировщик
Выбранный битрейт        : 128 kBit/s
Качество                 : Высокий
Добавление ID3-тега      : Нет
Утилита сжатия           : C:\Program Files (x86)\Exact Audio Copy\Flac\flac.exe
Дополнительные параметры : -V -8 %source%
TOC извлечённого CD
     Трек |   Старт  | Длительность | Начальный сектор | Конечный сектор
    ---------------------------------------------------------------------
       1  |  0:00.00 |    5:07.68   |           0      |      23092
       2  |  5:07.68 |    3:45.40   |       23093      |      40007
       3  |  8:53.33 |    4:21.27   |       40008      |      59609
       4  | 13:14.60 |    5:59.40   |       59610      |      86574
       5  | 19:14.25 |    3:39.35   |       86575      |     103034
       6  | 22:53.60 |    4:30.40   |      103035      |     123324
       7  | 27:24.25 |    3:51.30   |      123325      |     140679
       8  | 31:15.55 |    5:32.23   |      140680      |     165602
       9  | 36:48.03 |    4:37.67   |      165603      |     186444
Характеристики диапазона извлечения и сообщения об ошибках
Выбранный диапазон
     Имя файла D:\МУЗЫКАЛЬНЫЙ АРХИВ\КИНО\sound\Кино (Виктор Цой) - Неремастированная CD-дискография (1989-1995)\1989-Звезда по имени Солнце (MF (Михаил Фридман) Vol. 2 1995)\Кино - Звезда по имени Солнце (MF-Vol. 2).wav
     Пиковый уровень 96.1 %
     Скорость извлечения 6.9 X
     Качество диапазона 100.0 %
     CRC теста 9D0BEBEE
     CRC копии 9D0BEBEE
     Копирование... OK
Ошибок не произошло
Конец отчёта
==== Контрольная сумма отчёта 27455A8898CCC1A5AAC5941CC7CD055847B3EE41C744F6B1DA9C99C263F0A554 ====

Содержание индексной карты (.CUE)

REM GENRE "Rock"
REM DATE 1995
REM DISCID 7B09B509
REM COMMENT "ExactAudioCopy v1.0b3"
PERFORMER "Кино"
TITLE "1989 - Звезда По Имени Солнце (Germany - Konzert Agentur Michael Friedmann Vol. 2 - 1995)"
FILE "01. Песня Без Слов.m4a" WAVE
  TRACK 01 AUDIO
    TITLE "Песня Без Слов"
    PERFORMER "Кино"
    INDEX 01 00:00:00
  TRACK 02 AUDIO
    TITLE "Звезда По Имени Солнце"
    PERFORMER "Кино"
    INDEX 00 05:07:05
FILE "02. Звезда По Имени Солнце.m4a" WAVE
    INDEX 01 00:00:00
  TRACK 03 AUDIO
    TITLE "Невеселая Песня"
    PERFORMER "Кино"
    INDEX 00 03:44:30
FILE "03. Невеселая Песня.m4a" WAVE
    INDEX 01 00:00:00
  TRACK 04 AUDIO
    TITLE "Сказка"
    PERFORMER "Кино"
    INDEX 00 04:17:12
FILE "04. Сказка.m4a" WAVE
    INDEX 01 00:00:00
  TRACK 05 AUDIO
    TITLE "Место Для Шага Вперед"
    PERFORMER "Кино"
    INDEX 00 05:57:70
FILE "05. Место Для Шага Вперед.m4a" WAVE
    INDEX 01 00:00:00
  TRACK 06 AUDIO
    TITLE "Пачка Сигарет"
    PERFORMER "Кино"
    INDEX 00 03:38:20
FILE "06. Пачка Сигарет.m4a" WAVE
    INDEX 01 00:00:00
  TRACK 07 AUDIO
    TITLE "Стук"
    PERFORMER "Кино"
    INDEX 00 04:29:38
FILE "07. Стук.m4a" WAVE
    INDEX 01 00:00:00
  TRACK 08 AUDIO
    TITLE "Печаль"
    PERFORMER "Кино"
    INDEX 00 03:49:03
FILE "08. Печаль.m4a" WAVE
    INDEX 01 00:00:00
  TRACK 09 AUDIO
    TITLE "Апрель"
    PERFORMER "Кино"
    INDEX 00 05:31:13
FILE "09. Апрель.m4a" WAVE
    INDEX 01 00:00:00

1989 - Le Dernier Des Héros (France - Off The Track Records OTT 770 119 - 1989)

01. Changement 4:59
02.
Train de Banlieue 4:50
03.
Guerre 4:05
04.
Trolleybus 2:58
05.
D'ou Vient Donc Cette Tristesse 5:11
06.
Le Dernier Des Heros 3:07
07.
Groupe Sanguin 4:02
08.
Maman 3:52
09.
Dans Nos Yeux 3:50
10.
Bonne Nuit 6:26
Продолжительность: 43:19

Отчёт ЕАС

EAC extraction logfile from 2. May 2008, 17:23 for CD
Кино / Последний герой
Used drive  : PIONEER DVD-RW  DVR-109   Adapter: 0  ID: 0
Read mode   : Secure with NO C2, accurate stream, disable cache
Combined read/write offset correction : 48
Overread into Lead-In and Lead-Out : No
Used output format : Internal WAV Routines
                     44.100 Hz; 16 Bit; Stereo
Other options      :
    Fill up missing offset samples with silence : Yes
    Delete leading and trailing silent blocks : No
    Installed external ASPI interface
Range status and errors
Selected range
     Filename D:\New Folder (2)\Share\Kino_-_Le_dernier_des_heros.wav
     Peak level 100.0 %
     Range quality 100.0 %
     CRC 514EC96C
     Copy OK
No errors occured
End of status report

Содержание индексной карты (.CUE)

REM GENRE "Rock"
REM DATE 1989
REM DISCID 710A280A
REM COMMENT "ExactAudioCopy v0.95b3"
PERFORMER "Кино"
TITLE "1989 - Le Dernier Des Heros (France - Off The Track Records OTT 770 119 - 1989)"
FILE "01. Changement.m4a" WAVE
  TRACK 01 AUDIO
    TITLE "Changement"
    PERFORMER "Кино"
    PREGAP 00:00:33
    INDEX 01 00:00:00
  TRACK 02 AUDIO
    TITLE "Train de Banlieue"
    PERFORMER "Кино"
    INDEX 00 04:54:62
FILE "02. Train de Banlieue.m4a" WAVE
    INDEX 01 00:00:00
  TRACK 03 AUDIO
    TITLE "Guerre"
    PERFORMER "Кино"
    INDEX 00 04:48:05
FILE "03. Guerre.m4a" WAVE
    INDEX 01 00:00:00
  TRACK 04 AUDIO
    TITLE "Trolleybus"
    PERFORMER "Кино"
    INDEX 00 04:02:45
FILE "04. Trolleybus.m4a" WAVE
    INDEX 01 00:00:00
  TRACK 05 AUDIO
    TITLE "D'ou Vient Donc Cette Tristesse"
    PERFORMER "Кино"
    INDEX 00 02:54:35
FILE "05. D'ou Vient Donc Cette Tristesse.m4a" WAVE
    INDEX 01 00:00:00
  TRACK 06 AUDIO
    TITLE "Le Dernier Des Heros"
    PERFORMER "Кино"
    INDEX 00 05:08:67
FILE "06. Le Dernier Des Heros.m4a" WAVE
    INDEX 01 00:00:00
  TRACK 07 AUDIO
    TITLE "Groupe Sanguin"
    PERFORMER "Кино"
    INDEX 00 03:05:45
FILE "07. Groupe Sanguin.m4a" WAVE
    INDEX 01 00:00:00
  TRACK 08 AUDIO
    TITLE "Maman"
    PERFORMER "Кино"
    INDEX 00 03:58:27
FILE "08. Maman.m4a" WAVE
    INDEX 01 00:00:00
  TRACK 09 AUDIO
    TITLE "Dans Nos Yeux"
    PERFORMER "Кино"
    INDEX 00 03:48:47
FILE "09. Dans Nos Yeux.m4a" WAVE
    INDEX 01 00:00:00
  TRACK 10 AUDIO
    TITLE "Bonne Nuit"
    PERFORMER "Кино"
    INDEX 00 03:45:45
FILE "10. Bonne Nuit.m4a" WAVE
    INDEX 01 00:00:00

1989 - Последний Герой (Austria - Moroz Records - MR 93007 CD - 1993)

01. Хочу перемен 5:00
02.
Электричка 4:50
03.
Война 4:04
04.
Троллейбус 2:58
05.
Печаль 5:11
06.
Последний герой 3:07
07.
Группа крови 4:02
08.
Мама, мы все тяжело больны 3:52
09.
В наших глазах 3:50
10.
Спокойная ночь 6:27
Продолжительность: 43:20

Отчёт ЕАС

Exact Audio Copy V1.0 beta 3 from 29. August 2011
Отчёт EAC об извлечении, выполненном 9. апреля 2013, 17:21
Кино / Последний Герой
Дисковод: PIONEER DVD-RW  DVR-215D   Adapter: 2  ID: 0
Режим чтения                 : Достоверность
Использование точного потока : Да
Отключение кэша аудио        : Да
Использование указателей C2  : Нет
Коррекция смещения при чтении                     : 48
Способность читать области Lead-in и Lead-out     : Нет
Заполнение пропущенных сэмплов тишиной            : Да
Удаление блоков с тишиной в начале и конце        : Нет
При вычислениях CRC использовались нулевые сэмплы : Да
Интерфейс                                         : Встроенный Win32-интерфейс для Win NT/2000
Выходной формат          : Пользовательский кодировщик
Выбранный битрейт        : 128 kBit/s
Качество                 : Высокий
Добавление ID3-тега      : Нет
Утилита сжатия           : C:\Program Files (x86)\Exact Audio Copy\Flac\flac.exe
Дополнительные параметры : -V -8 %source%
TOC извлечённого CD
     Трек |   Старт  | Длительность | Начальный сектор | Конечный сектор
    ---------------------------------------------------------------------
       1  |  0:00.37 |    4:59.38   |          37      |      22499
       2  |  5:00.00 |    4:50.00   |       22500      |      44249
       3  |  9:50.00 |    4:04.00   |       44250      |      62549
       4  | 13:54.00 |    2:58.00   |       62550      |      75899
       5  | 16:52.00 |    5:11.00   |       75900      |      99224
       6  | 22:03.00 |    3:07.00   |       99225      |     113249
       7  | 25:10.00 |    4:02.00   |      113250      |     131399
       8  | 29:12.00 |    3:52.00   |      131400      |     148799
       9  | 33:04.00 |    3:50.00   |      148800      |     166049
      10  | 36:54.00 |    6:27.00   |      166050      |     195074
Характеристики диапазона извлечения и сообщения об ошибках
Выбранный диапазон
     Имя файла C:\Users\Сергей\Desktop\1989-Последний герой (1993, MR 93007 CD-93008 Sony DADC)\Кино - Последний Герой.wav
     Пиковый уровень 89.9 %
     Скорость извлечения 6.9 X
     Качество диапазона 100.0 %
     CRC теста C7E5D192
     CRC копии C7E5D192
     Копирование... OK
Ошибок не произошло
Конец отчёта
==== Контрольная сумма отчёта 605A1C7721D7A8F548C2CCC645208CE4E6B0063EC28E475988651FC4A54172B4 ====

Содержание индексной карты (.CUE)

REM GENRE "Rock"
REM DATE 1993
REM DISCID 760A290A
REM COMMENT "ExactAudioCopy v1.0b3"
PERFORMER "Кино"
TITLE "1989 - Последний Герой (Austria - Moroz Records - MR 93007 CD - 1993)"
FILE "01. Хочу Перемен.m4a" WAVE
  TRACK 01 AUDIO
    TITLE "Хочу Перемен"
    PERFORMER "Кино"
    PREGAP 00:00:37
    INDEX 01 00:00:00
  TRACK 02 AUDIO
    TITLE "Электричка"
    PERFORMER "Кино"
    INDEX 00 04:57:38
FILE "02. Электричка.m4a" WAVE
    INDEX 01 00:00:00
  TRACK 03 AUDIO
    TITLE "Война"
    PERFORMER "Кино"
    INDEX 00 04:47:00
FILE "03. Война.m4a" WAVE
    INDEX 01 00:00:00
  TRACK 04 AUDIO
    TITLE "Троллейбус"
    PERFORMER "Кино"
    INDEX 00 04:03:00
FILE "04. Троллейбус.m4a" WAVE
    INDEX 01 00:00:00
  TRACK 05 AUDIO
    TITLE "Печаль"
    PERFORMER "Кино"
    INDEX 00 02:56:00
FILE "05. Печаль.m4a" WAVE
    INDEX 01 00:00:00
  TRACK 06 AUDIO
    TITLE "Последний Герой"
    PERFORMER "Кино"
    INDEX 00 05:10:00
FILE "06. Последний Герой.m4a" WAVE
    INDEX 01 00:00:00
  TRACK 07 AUDIO
    TITLE "Группа Крови"
    PERFORMER "Кино"
    INDEX 00 03:06:00
FILE "07. Группа Крови.m4a" WAVE
    INDEX 01 00:00:00
  TRACK 08 AUDIO
    TITLE "Мама"
    PERFORMER "Кино"
    INDEX 00 04:01:00
FILE "08. Мама.m4a" WAVE
    INDEX 01 00:00:00
  TRACK 09 AUDIO
    TITLE "В Наших Глазах"
    PERFORMER "Кино"
    INDEX 00 03:51:00
FILE "09. В Наших Глазах.m4a" WAVE
    INDEX 01 00:00:00
  TRACK 10 AUDIO
    TITLE "Спокойной Ночи"
    PERFORMER "Кино"
    INDEX 00 03:48:00
FILE "10. Спокойной Ночи.m4a" WAVE
    INDEX 01 00:00:00

1990 - Чёрный Альбом (КИНО) (Austria - General Records GR-90-203 - 1994)

01. Кончится лето 5:55
02.
Красно-желтые дни 5:50
03.
Нам с тобой 4:50
04.
Звезда 4:32
05.
Кукушка 6:40
06.
Когда твоя девушка больна 4:21
07.
Муравейник 5:19
08.
Следи за собой 4:59
Продолжительность: 42:26

Отчёт ЕАС

Exact Audio Copy V1.0 beta 3 from 29. August 2011
Отчёт EAC об извлечении, выполненном 25. апреля 2013, 22:14
Кино / Чёрный Альбом
Дисковод: PIONEER DVD-RW  DVR-215D   Adapter: 2  ID: 0
Режим чтения                 : Достоверность
Использование точного потока : Да
Отключение кэша аудио        : Да
Использование указателей C2  : Нет
Коррекция смещения при чтении                     : 48
Способность читать области Lead-in и Lead-out     : Нет
Заполнение пропущенных сэмплов тишиной            : Да
Удаление блоков с тишиной в начале и конце        : Нет
При вычислениях CRC использовались нулевые сэмплы : Да
Интерфейс                                         : Встроенный Win32-интерфейс для Win NT/2000
Выходной формат          : Пользовательский кодировщик
Выбранный битрейт        : 128 kBit/s
Качество                 : Высокий
Добавление ID3-тега      : Нет
Утилита сжатия           : C:\Program Files (x86)\Exact Audio Copy\Flac\flac.exe
Дополнительные параметры : -V -8 %source%
TOC извлечённого CD
     Трек |   Старт  | Длительность | Начальный сектор | Конечный сектор
    ---------------------------------------------------------------------
       1  |  0:00.00 |    5:55.22   |           0      |      26646
       2  |  5:55.22 |    5:50.25   |       26647      |      52921
       3  | 11:45.47 |    4:49.68   |       52922      |      74664
       4  | 16:35.40 |    4:32.20   |       74665      |      95084
       5  | 21:07.60 |    6:39.72   |       95085      |     125081
       6  | 27:47.57 |    4:21.23   |      125082      |     144679
       7  | 32:09.05 |    5:19.05   |      144680      |     168609
       8  | 37:28.10 |    4:58.52   |      168610      |     191011
Характеристики диапазона извлечения и сообщения об ошибках
Выбранный диапазон
     Имя файла C:\Users\Сергей\Desktop\1990-Чёрный альбом (1994)\Кино - Чёрный Альбом.wav
     Пиковый уровень 79.9 %
     Скорость извлечения 4.0 X
     Качество диапазона 100.0 %
     CRC теста 4B6130A7
     CRC копии 4B6130A7
     Копирование... OK
Ошибок не произошло
Конец отчёта
==== Контрольная сумма отчёта 1D1CB8CE0317F99BC4115F04691A15A06D355C5D7492D49492892A5CBE968BDF ====

Содержание индексной карты (.CUE)

REM GENRE "Rock"
REM DATE 1994
REM DISCID 7709F208
REM COMMENT "ExactAudioCopy v1.0b3"
PERFORMER "Кино"
TITLE "1990 - Чёрный Альбом (КИНО) (Austria - General Records GR-90-203 - 1994)"
FILE "01. Лето.m4a" WAVE
  TRACK 01 AUDIO
    TITLE "Лето"
    PERFORMER "Кино"
    INDEX 01 00:00:00
  TRACK 02 AUDIO
    TITLE "Красно-Желтые Дни"
    PERFORMER "Кино"
    INDEX 00 05:55:10
FILE "02. Красно-Желтые Дни.m4a" WAVE
    INDEX 01 00:00:00
  TRACK 03 AUDIO
    TITLE "Нам С Тобой"
    PERFORMER "Кино"
    INDEX 00 05:49:55
FILE "03. Нам С Тобой.m4a" WAVE
    INDEX 01 00:00:00
  TRACK 04 AUDIO
    TITLE "Звезда"
    PERFORMER "Кино"
    INDEX 00 04:48:70
FILE "04. Звезда.m4a" WAVE
    INDEX 01 00:00:00
  TRACK 05 AUDIO
    TITLE "Кукушка"
    PERFORMER "Кино"
    INDEX 00 04:30:45
FILE "05. Кукушка.m4a" WAVE
    INDEX 01 00:00:00
  TRACK 06 AUDIO
    TITLE "Когда Твоя Девушка Больна"
    PERFORMER "Кино"
    INDEX 00 06:39:07
FILE "06. Когда Твоя Девушка Больна.m4a" WAVE
    INDEX 01 00:00:00
  TRACK 07 AUDIO
    TITLE "Муравейник"
    PERFORMER "Кино"
    INDEX 00 04:19:40
FILE "07. Муравейник.m4a" WAVE
    INDEX 01 00:00:00
  TRACK 08 AUDIO
    TITLE "Следи За Собой"
    PERFORMER "Кино"
    INDEX 00 05:17:05
FILE "08. Следи За Собой.m4a" WAVE
    INDEX 01 00:00:00

1990 - Чёрный Альбом (КИНО) (Germany - Konzert Agentur Michael Friedmann Vol. 1 - 1995)

01. Кончится лето 5:55
02.
Красно-желтые дни 5:50
03.
Нам с тобой 4:50
04.
Звезда 4:32
05.
Кукушка 6:40
06.
Когда твоя девушка больна 4:21
07.
Муравейник 5:19
08.
Следи за собой 4:58
Продолжительность: 42:26

Отчёт ЕАС

Exact Audio Copy V1.0 beta 4 from 7. December 2014
Отчёт EAC об извлечении, выполненном 3. января 2015, 11:38
Кино / Кино (Чёрный альбом)
Дисковод: TSSTcorpCDDVDW TS-L633C   Adapter: 1  ID: 0
Режим чтения                 : Достоверность
Использование точного потока : Да
Отключение кэша аудио        : Да
Использование указателей C2  : Нет
Коррекция смещения при чтении                     : 6
Способность читать области Lead-in и Lead-out     : Нет
Заполнение пропущенных сэмплов тишиной            : Да
Удаление блоков с тишиной в начале и конце        : Нет
При вычислениях CRC использовались нулевые сэмплы : Да
Интерфейс                                         : Встроенный Win32-интерфейс для Win NT/2000
Выходной формат          : Пользовательский кодировщик
Выбранный битрейт        : 896 kBit/s
Качество                 : Высокий
Добавление ID3-тега      : Нет
Утилита сжатия           : C:\Program Files (x86)\Exact Audio Copy\FLAC\FLAC.EXE
Дополнительные параметры : -6 -V -T "ARTIST=%artist%" -T "TITLE=%title%" -T "ALBUM=%albumtitle%" -T "DATE=%year%" -T "TRACKNUMBER=%tracknr%" -T "GENRE=%genre%" -T "COMMENT=%comment%" -T "BAND=%albuminterpret%" -T "ALBUMARTIST=%albuminterpret%" -T "COMPOSER=%composer%" %haslyrics%--tag-from-file=LYRICS="%lyricsfile%"%haslyrics% -T "DISCNUMBER=%cdnumber%" -T "TOTALDISCS=%totalcds%" -T "TOTALTRACKS=%numtracks%" %hascover%--picture="%coverfile%"%hascover% %source% -o %dest%
TOC извлечённого CD
     Трек |   Старт  | Длительность | Начальный сектор | Конечный сектор
    ---------------------------------------------------------------------
       1  |  0:00.00 |    5:55.22   |           0      |      26646
       2  |  5:55.22 |    5:50.35   |       26647      |      52931
       3  | 11:45.57 |    4:49.73   |       52932      |      74679
       4  | 16:35.55 |    4:32.07   |       74680      |      95086
       5  | 21:07.62 |    6:40.13   |       95087      |     125099
       6  | 27:48.00 |    4:21.25   |      125100      |     144699
       7  | 32:09.25 |    5:18.62   |      144700      |     168611
       8  | 37:28.12 |    4:58.30   |      168612      |     190991
Характеристики диапазона извлечения и сообщения об ошибках
Выбранный диапазон
     Имя файла C:\Users\йцуке\Music\Кино - Кино (Чёрный альбом).wav
     Пиковый уровень 79.9 %
     Скорость извлечения 4.0 X
     Качество диапазона 100.0 %
     CRC теста E37E30EB
     CRC копии E37E30EB
     Копирование... OK
Ошибок не произошло
AccurateRip: сводка
Трек  1  отсутствует в базе данных
Трек  2  отсутствует в базе данных
Трек  3  отсутствует в базе данных
Трек  4  отсутствует в базе данных
Трек  5  отсутствует в базе данных
Трек  6  отсутствует в базе данных
Трек  7  отсутствует в базе данных
Трек  8  отсутствует в базе данных
Ни одного трека нет в базе AccurateRip
Конец отчёта
---- CUETools DB Plugin V2.1.4
[CTDB TOCID: 0VrgU1u05.9aREjJEB_IYX2FnJI-] found
Submit result: 0VrgU1u05.9aREjJEB_IYX2FnJI- has been confirmed
Track | CTDB Status
  1   | (1/1) Accurately ripped
  2   | (1/1) Accurately ripped
  3   | (1/1) Accurately ripped
  4   | (1/1) Accurately ripped
  5   | (1/1) Accurately ripped
  6   | (1/1) Accurately ripped
  7   | (1/1) Accurately ripped
  8   | (1/1) Accurately ripped
==== Контрольная сумма отчёта 3E54589E44FEBC60A5A085B4222F83F0B462B8CE7ED42C6C2E057205BC6CD1C2 ====

Содержание индексной карты (.CUE)

REM GENRE "Rock"
REM DATE 1995
REM DISCID 6F09F208
REM COMMENT "ExactAudioCopy v1.0b4"
PERFORMER "Кино"
TITLE "1990 - Чёрный Альбом (КИНО) (Germany - Konzert Agentur Michael Friedmann Vol. 1 - 1995)"
REM DISCNUMBER 1
REM TOTALDISCS 1
FILE "01. Лето.m4a" WAVE
  TRACK 01 AUDIO
    TITLE "Лето"
    PERFORMER "Кино"
    INDEX 01 00:00:00
  TRACK 02 AUDIO
    TITLE "Красно-жёлтые дни"
    PERFORMER "Кино"
    INDEX 00 05:54:70
FILE "02. Красно-жёлтые дни.m4a" WAVE
    INDEX 01 00:00:00
  TRACK 03 AUDIO
    TITLE "Нам с тобой"
    PERFORMER "Кино"
    INDEX 00 05:49:30
FILE "03. Нам с тобой.m4a" WAVE
    INDEX 01 00:00:00
  TRACK 04 AUDIO
    TITLE "Звезда"
    PERFORMER "Кино"
    INDEX 00 04:48:25
FILE "04. Звезда.m4a" WAVE
    INDEX 01 00:00:00
  TRACK 05 AUDIO
    TITLE "Кукушка"
    PERFORMER "Кино"
    INDEX 00 04:30:27
FILE "05. Кукушка.m4a" WAVE
    INDEX 01 00:00:00
  TRACK 06 AUDIO
    TITLE "Когда твоя девушка больна"
    PERFORMER "Кино"
    INDEX 00 06:38:68
FILE "06. Когда твоя девушка больна.m4a" WAVE
    INDEX 01 00:00:00
  TRACK 07 AUDIO
    TITLE "Муравейник"
    PERFORMER "Кино"
    INDEX 00 04:18:72
FILE "07. Муравейник.m4a" WAVE
    INDEX 01 00:00:00
  TRACK 08 AUDIO
    TITLE "Следи за собой"
    PERFORMER "Кино"
    INDEX 00 05:16:55
FILE "08. Следи за собой.m4a" WAVE
    INDEX 01 00:00:00

Виктор Цой

1984 - Акустика (Austria - APEX Ltd. AXCD 2-0068 - 1996)

01. Я из тех,кто каждый день 3:49
02.
Последний герой 3:28
03.
Дети проходных дворов 3:34
04.
Пора 2:30
05.
Стань птицей 2:36
06.
Камчатка 3:32
07.
Электричка 2:31
08.
Восьмиклассница 1:57
09.
Без десяти 2:20
10.
Солнечные дни 3:01
11.
Лето 1:33
12.
Троллейбус 2:47
13.
Весна 2:00
14.
Виктор Бездельник 3:08
15.
Транквилизатор 5:35
Продолжительность: 44:20

Отчёт ЕАС

Exact Audio Copy V0.99 prebeta 4 from 23. January 2008
Отчёт EAC об извлечении, выполненном 29. ноября 2009, 17:36
Виктор Цой / Концерт у Краева
Дисковод: _NEC    DVD_RW ND-4550A   Adapter: 0  ID: 2
Режим чтения                 : Достоверность
Использование точного потока : Да
Отключение кэша аудио        : Да
Использование указателей C2  : Нет
Коррекция смещения при чтении                     : 48
Способность читать области Lead-in и Lead-out     : Нет
Заполнение пропущенных сэмплов тишиной            : Да
Удаление блоков с тишиной в начале и конце        : Нет
При вычислениях CRC использовались нулевые сэмплы : Да
Интерфейс                                         : Встроенный Win32-интерфейс для Win NT/2000
Выходной формат : Внутренние WAV-операции
Формат сэмплов  : 44.100 Гц; 16 бит; стерео
TOC извлечённого CD
     Трек |   Старт  | Длительность | Начальный сектор | Конечный сектор
    ---------------------------------------------------------------------
       1  |  0:00.38 |    3:49.30   |          38      |      17242
       2  |  3:49.68 |    3:27.65   |       17243      |      32832
       3  |  7:17.58 |    3:33.67   |       32833      |      48874
       4  | 10:51.50 |    2:29.73   |       48875      |      60122
       5  | 13:21.48 |    2:36.22   |       60123      |      71844
       6  | 15:57.70 |    3:31.65   |       71845      |      87734
       7  | 19:29.60 |    2:30.53   |       87735      |      99037
       8  | 22:00.38 |    1:56.70   |       99038      |     107807
       9  | 23:57.33 |    2:19.72   |      107808      |     118304
      10  | 26:17.30 |    3:00.68   |      118305      |     131872
      11  | 29:18.23 |    1:33.07   |      131873      |     138854
      12  | 30:51.30 |    2:46.43   |      138855      |     151347
      13  | 33:37.73 |    2:00.17   |      151348      |     160364
      14  | 35:38.15 |    3:07.73   |      160365      |     174462
      15  | 38:46.13 |    5:34.42   |      174463      |     199554
Характеристики диапазона извлечения и сообщения об ошибках
Выбранный диапазон
     Имя файла C:\temp\wav\Виктор Цой - Концерт у Краева.wav
     Пиковый уровень 82.5 %
     Качество диапазона 99.9 %
     CRC копии 0D0AB831
     Копирование... OK
Ошибок не произошло
Конец отчёта

Содержание индексной карты (.CUE)

REM GENRE "Rock"
REM DATE 1996
REM DISCID C20A640F
REM COMMENT "ExactAudioCopy v0.99pb4"
PERFORMER "Виктор Цой"
TITLE "1984 - Акустика (Austria - APEX Ltd. AXCD 2-0068 - 1996)"
FILE "01. Я из тех, кто каждый день.m4a" WAVE
  TRACK 01 AUDIO
    TITLE "Я из тех, кто каждый день"
    PERFORMER "Виктор Цой"
    PREGAP 00:00:38
    INDEX 01 00:00:00
  TRACK 02 AUDIO
    TITLE "Последний герой"
    PERFORMER "Виктор Цой"
    INDEX 00 03:49:27
FILE "02. Последний герой.m4a" WAVE
    INDEX 01 00:00:00
  TRACK 03 AUDIO
    TITLE "Дети проходных дворов"
    PERFORMER "Виктор Цой"
    INDEX 00 03:27:62
FILE "03. Дети проходных дворов.m4a" WAVE
    INDEX 01 00:00:00
  TRACK 04 AUDIO
    TITLE "Пора"
    PERFORMER "Виктор Цой"
    INDEX 00 03:33:62
FILE "04. Пора.m4a" WAVE
    INDEX 01 00:00:00
  TRACK 05 AUDIO
    TITLE "Стань птицей"
    PERFORMER "Виктор Цой"
    INDEX 00 02:29:70
FILE "05. Стань птицей.m4a" WAVE
    INDEX 01 00:00:00
  TRACK 06 AUDIO
    TITLE "Камчатка"
    PERFORMER "Виктор Цой"
    INDEX 00 02:36:20
FILE "06. Камчатка.m4a" WAVE
    INDEX 01 00:00:00
  TRACK 07 AUDIO
    TITLE "Электричка"
    PERFORMER "Виктор Цой"
    INDEX 00 03:31:63
FILE "07. Электричка.m4a" WAVE
    INDEX 01 00:00:00
  TRACK 08 AUDIO
    TITLE "Восьмиклассница"
    PERFORMER "Виктор Цой"
    INDEX 00 02:30:45
FILE "08. Восьмиклассница.m4a" WAVE
    INDEX 01 00:00:00
  TRACK 09 AUDIO
    TITLE "Без десяти"
    PERFORMER "Виктор Цой"
    INDEX 00 01:56:65
FILE "09. Без десяти.m4a" WAVE
    INDEX 01 00:00:00
  TRACK 10 AUDIO
    TITLE "Солнечные дни"
    PERFORMER "Виктор Цой"
    INDEX 00 02:19:67
FILE "10. Солнечные дни.m4a" WAVE
    INDEX 01 00:00:00
  TRACK 11 AUDIO
    TITLE "Лето"
    PERFORMER "Виктор Цой"
    INDEX 00 03:00:63
FILE "11. Лето.m4a" WAVE
    INDEX 01 00:00:00
  TRACK 12 AUDIO
    TITLE "Троллейбус"
    PERFORMER "Виктор Цой"
    INDEX 00 01:33:02
FILE "12. Троллейбус.m4a" WAVE
    INDEX 01 00:00:00
  TRACK 13 AUDIO
    TITLE "Весна"
    PERFORMER "Виктор Цой"
    INDEX 00 02:46:40
FILE "13. Весна.m4a" WAVE
    INDEX 01 00:00:00
  TRACK 14 AUDIO
    TITLE "Бездельник"
    PERFORMER "Виктор Цой"
    INDEX 00 02:00:15
FILE "14. Бездельник.m4a" WAVE
    INDEX 01 00:00:00
  TRACK 15 AUDIO
    TITLE "Транквилизатор"
    PERFORMER "Виктор Цой"
    INDEX 00 03:07:70
FILE "15. Транквилизатор.m4a" WAVE
    INDEX 01 00:00:00

1987 - Акустический Концерт (Austria - Moroz Records MR 94038 CD - 1994)

01. Последний герой 4:16
02.
Каждую ночь 2:45
03.
Перемен 4:05
04.
Аллюминиевые огурцы 4:16
05.
Солнечные дни 4:18
06.
Дальше действовать будем мы 4:40
07.
Генерал 6:13
08.
Уходи 3:16
09.
Восьмиклассница 2:20
10.
Мама анархия 6:05
11.
Безъядерная зона 1:52
12.
Троллейбус 3:16
13.
Транквилизатор 5:17
14.
Камчатка 2:55
Продолжительность: 55:33

Отчёт ЕАС

Exact Audio Copy V1.0 beta 3 from 29. August 2011
Отчёт EAC об извлечении, выполненном 11. мая 2013, 21:40
В.Цой / Акустический концерт
Дисковод: PIONEER DVD-RW  DVR-116D   Adapter: 1  ID: 0
Режим чтения                 : Достоверность
Использование точного потока : Да
Отключение кэша аудио        : Да
Использование указателей C2  : Нет
Коррекция смещения при чтении                     : 96
Способность читать области Lead-in и Lead-out     : Нет
Заполнение пропущенных сэмплов тишиной            : Да
Удаление блоков с тишиной в начале и конце        : Нет
При вычислениях CRC использовались нулевые сэмплы : Да
Интерфейс                                         : Встроенный Win32-интерфейс для Win NT/2000
Выходной формат          : Пользовательский кодировщик
Выбранный битрейт        : 1024 kBit/s
Качество                 : Высокий
Добавление ID3-тега      : Нет
Утилита сжатия           : C:\Program Files (x86)\Exact Audio Copy\Flac\flac.exe
Дополнительные параметры : -8 -V %source%
TOC извлечённого CD
     Трек |   Старт  | Длительность | Начальный сектор | Конечный сектор
    ---------------------------------------------------------------------
       1  |  0:00.00 |    4:15.55   |           0      |      19179
       2  |  4:15.55 |    2:45.30   |       19180      |      31584
       3  |  7:01.10 |    4:04.55   |       31585      |      49939
       4  | 11:05.65 |    4:15.42   |       49940      |      69106
       5  | 15:21.32 |    4:18.35   |       69107      |      88491
       6  | 19:39.67 |    4:40.08   |       88492      |     109499
       7  | 24:20.00 |    6:13.07   |      109500      |     137481
       8  | 30:33.07 |    3:15.40   |      137482      |     152146
       9  | 33:48.47 |    2:20.35   |      152147      |     162681
      10  | 36:09.07 |    6:04.68   |      162682      |     190049
      11  | 42:14.00 |    1:52.05   |      190050      |     198454
      12  | 44:06.05 |    3:15.60   |      198455      |     213139
      13  | 47:21.65 |    5:17.05   |      213140      |     236919
      14  | 52:38.70 |    2:55.05   |      236920      |     250049
Характеристики диапазона извлечения и сообщения об ошибках
Выбранный диапазон
     Имя файла C:\Users\Гордей\Music\1987 - Акустический концерт (1994 Moroz MR 94038 CD DCM Швеция, Flac)\Акустический концерт.wav
     Пиковый уровень 92.1 %
     Скорость извлечения 1.7 X
     Качество диапазона 100.0 %
     CRC теста C2A9A0C0
     CRC копии C2A9A0C0
     Копирование... OK
Ошибок не произошло
AccurateRip: сводка
Трек  1  отсутствует в базе данных
Трек  2  отсутствует в базе данных
Трек  3  отсутствует в базе данных
Трек  4  отсутствует в базе данных
Трек  5  отсутствует в базе данных
Трек  6  отсутствует в базе данных
Трек  7  отсутствует в базе данных
Трек  8  отсутствует в базе данных
Трек  9  отсутствует в базе данных
Трек 10  отсутствует в базе данных
Трек 11  отсутствует в базе данных
Трек 12  отсутствует в базе данных
Трек 13  отсутствует в базе данных
Трек 14  отсутствует в базе данных
Ни одного трека нет в базе AccurateRip
Конец отчёта
---- CUETools DB Plugin V2.1.3
[CTDB TOCID: GjvU1tObUssrNs9JPi2lhmtqv7Y-] disk not present in database, Submit result: GjvU1tObUssrNs9JPi2lhmtqv7Y- has been uploaded

Содержание индексной карты (.CUE)

REM GENRE "Rock"
REM DATE 1994
REM DISCID B20D060E
REM COMMENT "ExactAudioCopy v1.0b3"
PERFORMER "Виктор Цой"
TITLE "1987 - Акустический Концерт (Austria - Moroz Records MR 94038 CD - 1994)"
FILE "01. Последний герой.m4a" WAVE
  TRACK 01 AUDIO
    TITLE "Последний герой"
    PERFORMER "В.Цой"
    INDEX 01 00:00:00
  TRACK 02 AUDIO
    TITLE "Каждую ночь"
    PERFORMER "В.Цой"
    INDEX 00 04:15:52
FILE "02. Каждую ночь.m4a" WAVE
    INDEX 01 00:00:00
  TRACK 03 AUDIO
    TITLE "Хочу перемен"
    PERFORMER "В.Цой"
    INDEX 00 02:45:27
FILE "03. Хочу перемен.m4a" WAVE
    INDEX 01 00:00:00
  TRACK 04 AUDIO
    TITLE "Алюминиевые огурцы"
    PERFORMER "В.Цой"
    INDEX 00 04:04:52
FILE "04. Алюминиевые огурцы.m4a" WAVE
    INDEX 01 00:00:00
  TRACK 05 AUDIO
    TITLE "Солнечные дни"
    PERFORMER "В.Цой"
    INDEX 00 04:15:40
FILE "05. Солнечные дни.m4a" WAVE
    INDEX 01 00:00:00
  TRACK 06 AUDIO
    TITLE "Дальше"
    PERFORMER "В.Цой"
    INDEX 00 04:18:33
FILE "06. Дальше.m4a" WAVE
    INDEX 01 00:00:00
  TRACK 07 AUDIO
    TITLE "Генерал"
    PERFORMER "В.Цой"
    INDEX 00 04:40:05
FILE "07. Генерал.m4a" WAVE
    INDEX 01 00:00:00
  TRACK 08 AUDIO
    TITLE "Уходи"
    PERFORMER "В.Цой"
    INDEX 00 06:13:05
FILE "08. Уходи.m4a" WAVE
    INDEX 01 00:00:00
  TRACK 09 AUDIO
    TITLE "Восьмиклассница"
    PERFORMER "В.Цой"
    INDEX 00 03:15:38
FILE "09. Восьмиклассница.m4a" WAVE
    INDEX 01 00:00:00
  TRACK 10 AUDIO
    TITLE "Анархия"
    PERFORMER "В.Цой"
    INDEX 00 02:20:33
FILE "10. Анархия.m4a" WAVE
    INDEX 01 00:00:00
  TRACK 11 AUDIO
    TITLE "Безъядерная зона"
    PERFORMER "В.Цой"
    INDEX 00 06:04:65
FILE "11. Безъядерная зона.m4a" WAVE
    INDEX 01 00:00:00
  TRACK 12 AUDIO
    TITLE "Троллейбус"
    PERFORMER "В.Цой"
    INDEX 00 01:52:02
FILE "12. Троллейбус.m4a" WAVE
    INDEX 01 00:00:00
  TRACK 13 AUDIO
    TITLE "Транквилизатор"
    PERFORMER "В.Цой"
    INDEX 00 03:15:57
FILE "13. Транквилизатор.m4a" WAVE
    INDEX 01 00:00:00
  TRACK 14 AUDIO
    TITLE "Камчатка"
    PERFORMER "В.Цой"
    INDEX 00 05:17:02
FILE "14. Камчатка.m4a" WAVE
    INDEX 01 00:00:00

1992 - Неизвестные Песни (Russia - Laserfilm LF93-014 - 1993)

01. Разреши мне 4:08
02.
Братская любовь 3:32
03.
Ты мог бы … 3:34
04.
Любовь - это не шутка 5:07
05.
Ты обвела меня вокруг пальца 2:58
06.
В поисках сюжета 1:00
07.
Весна 2:24
08.
Последний герой 2:41
09.
Около семи утра 3:16
10.
Лето 1:40
Продолжительность: 30:28

Отчёт ЕАС

Exact Audio Copy V1.0 beta 3 from 29. August 2011
Отчёт EAC об извлечении, выполненном 18. июня 2013, 7:28
Виктор Цой / Неизвестные песни Виктора Цоя
Дисковод: PIONEER DVD-RW  DVR-116D   Adapter: 1  ID: 0
Режим чтения                 : Достоверность
Использование точного потока : Да
Отключение кэша аудио        : Да
Использование указателей C2  : Нет
Коррекция смещения при чтении                     : 96
Способность читать области Lead-in и Lead-out     : Нет
Заполнение пропущенных сэмплов тишиной            : Да
Удаление блоков с тишиной в начале и конце        : Нет
При вычислениях CRC использовались нулевые сэмплы : Да
Интерфейс                                         : Встроенный Win32-интерфейс для Win NT/2000
Выходной формат          : Пользовательский кодировщик
Выбранный битрейт        : 1024 kBit/s
Качество                 : Высокий
Добавление ID3-тега      : Нет
Утилита сжатия           : C:\Program Files (x86)\Exact Audio Copy\Flac\flac.exe
Дополнительные параметры : -8 -V %source%
TOC извлечённого CD
     Трек |   Старт  | Длительность | Начальный сектор | Конечный сектор
    ---------------------------------------------------------------------
       1  |  0:00.23 |    4:07.60   |          23      |      18607
       2  |  4:08.08 |    3:31.52   |       18608      |      34484
       3  |  7:39.60 |    3:33.55   |       34485      |      50514
       4  | 11:13.40 |    5:06.70   |       50515      |      73534
       5  | 16:20.35 |    2:57.73   |       73535      |      86882
       6  | 19:18.33 |    0:59.42   |       86883      |      91349
       7  | 20:18.00 |    2:23.65   |       91350      |     102139
       8  | 22:41.65 |    2:41.20   |      102140      |     114234
       9  | 25:23.10 |    3:25.48   |      114235      |     129657
      10  | 28:48.58 |    1:40.22   |      129658      |     137179
Характеристики диапазона извлечения и сообщения об ошибках
Выбранный диапазон
     Имя файла C:\Users\Гордей\Music\1982 - Неизвестные песни Виктора Цоя (1993 Laserfilm-Ltd LF93-014, Flac)\Неизвестные песни Виктора Цоя.wav
     Пиковый уровень 64.6 %
     Скорость извлечения 6.2 X
     Качество диапазона 100.0 %
     CRC теста 3427AF1F
     CRC копии 3427AF1F
     Копирование... OK
Ошибок не произошло
AccurateRip: сводка
Трек  1  точность не определена (достоверность 2)  [BE3F077A], AccurateRip вернул [89E380FD]  (AR v2)
Трек  2  точность не определена (достоверность 2)  [F608C8B1], AccurateRip вернул [52549478]  (AR v2)
Трек  3  точность не определена (достоверность 2)  [BBC9299D], AccurateRip вернул [FE73D285]  (AR v2)
Трек  4  точность не определена (достоверность 2)  [A6EB8179], AccurateRip вернул [F7D9FA64]  (AR v2)
Трек  5  точность не определена (достоверность 2)  [8907686C], AccurateRip вернул [1706207B]  (AR v2)
Трек  6  точность не определена (достоверность 2)  [753D660A], AccurateRip вернул [C3F85976]  (AR v2)
Трек  7  точность не определена (достоверность 2)  [C6DBF7B1], AccurateRip вернул [C8E9DE2D]  (AR v2)
Трек  8  точность не определена (достоверность 2)  [C31B24FE], AccurateRip вернул [160DAE30]  (AR v2)
Трек  9  точность не определена (достоверность 2)  [6760F706], AccurateRip вернул [C13ABD22]  (AR v2)
Трек 10  точность не определена (достоверность 2)  [19097F08], AccurateRip вернул [65D8C147]  (AR v2)
Ни один трек не прошёл проверки на точность
В вашей базе может быть иной вариант штамповки диска
Конец отчёта
---- CUETools DB Plugin V2.1.3
[CTDB TOCID: 4DBjltP8YZ5ryLFoZ6HfldM8lvs-] found, Submit result: discs with pregaps not supported in this protocol version
[3a879574] (2/2) Differs in 0 samples @
You can use CUETools to repair this rip.

Содержание индексной карты (.CUE)

REM GENRE "Rock"
REM DATE 1993
REM DISCID 6B07250A
REM COMMENT "ExactAudioCopy v1.0b3"
PERFORMER "Виктор Цой"
TITLE "1992 - Неизвестные Песни (Russia - Laserfilm LF93-014 - 1993)"
FILE "01. Разреши мне.m4a" WAVE
  TRACK 01 AUDIO
    TITLE "Разреши мне"
    PERFORMER "Виктор Цой"
    PREGAP 00:00:23
    INDEX 01 00:00:00
  TRACK 02 AUDIO
    TITLE "Братская любовь"
    PERFORMER "Виктор Цой"
    INDEX 00 04:07:57
FILE "02. Братская любовь.m4a" WAVE
    INDEX 01 00:00:00
  TRACK 03 AUDIO
    TITLE "Ты мог бы..."
    PERFORMER "Виктор Цой"
    INDEX 00 03:31:50
FILE "03. Ты мог бы....m4a" WAVE
    INDEX 01 00:00:00
  TRACK 04 AUDIO
    TITLE "Любовь - это не шутка"
    PERFORMER "Виктор Цой"
    INDEX 00 03:33:53
FILE "04. Любовь - это не шутка.m4a" WAVE
    INDEX 01 00:00:00
  TRACK 05 AUDIO
    TITLE "Ты обвела меня вокруг пальца"
    PERFORMER "Виктор Цой"
    INDEX 00 05:06:68
FILE "05. Ты обвела меня вокруг пальца.m4a" WAVE
    INDEX 01 00:00:00
  TRACK 06 AUDIO
    TITLE "В поисках сюжета"
    PERFORMER "Виктор Цой"
    INDEX 00 02:57:70
FILE "06. В поисках сюжета.m4a" WAVE
    INDEX 01 00:00:00
  TRACK 07 AUDIO
    TITLE "Весна"
    PERFORMER "Виктор Цой"
    INDEX 00 00:59:40
FILE "07. Весна.m4a" WAVE
    INDEX 01 00:00:00
  TRACK 08 AUDIO
    TITLE "Последний герой"
    PERFORMER "Виктор Цой"
    INDEX 00 02:23:63
FILE "08. Последний герой.m4a" WAVE
    INDEX 01 00:00:00
  TRACK 09 AUDIO
    TITLE "Я из тех"
    PERFORMER "Виктор Цой"
    INDEX 00 02:41:19
FILE "09. Я из тех.m4a" WAVE
    INDEX 01 00:00:00
  TRACK 10 AUDIO
    TITLE "Лето"
    PERFORMER "Виктор Цой"
    INDEX 00 03:25:43
FILE "10. Лето.m4a" WAVE
    INDEX 01 00:00:00

1992 - Неизвестные Песни (Austria - Moroz Records MR 95052 CD - 1994)

01. Разреши мне 4:08
02.
Братская любовь 3:32
03.
Ты мог бы … 3:34
04.
Любовь - это не шутка 5:07
05.
Ты обвела меня вокруг пальца 2:58
06.
В поисках сюжета 1:00
07.
Весна 2:24
08.
Последний герой 2:41
09.
Около семи утра 3:16
10.
Лето 1:40
Продолжительность: 30:28

Отчёт ЕАС

Exact Audio Copy V0.99 prebeta 3 from 28. July 2007
EAC extraction logfile from 29. November 2008, 15:35
Kino (Viktor Tsoi) / Neisvestnye Pesni Viktora Tsoya
Used drive  : MATSHITADVD-RAM UJ-850S   Adapter: 2  ID: 0
Read mode               : Secure
Utilize accurate stream : Yes
Defeat audio cache      : Yes
Make use of C2 pointers : No
Read offset correction                      : 102
Overread into Lead-In and Lead-Out          : No
Fill up missing offset samples with silence : Yes
Delete leading and trailing silent blocks   : No
                                            : Yes
Used interface                              : Installed external ASPI interface
Used output format : Internal WAV Routines
Sample format      : 44.100 Hz; 16 Bit; Stereo
TOC of the extracted CD
     Track |   Start  |  Length  | Start sector | End sector
    ---------------------------------------------------------
        1  |  0:00.23 |  4:07.60 |        23    |    18607
        2  |  4:08.08 |  3:31.52 |     18608    |    34484
        3  |  7:39.60 |  3:33.55 |     34485    |    50514
        4  | 11:13.40 |  5:06.70 |     50515    |    73534
        5  | 16:20.35 |  2:57.73 |     73535    |    86882
        6  | 19:18.33 |  0:59.42 |     86883    |    91349
        7  | 20:18.00 |  2:23.65 |     91350    |   102139
        8  | 22:41.65 |  2:41.20 |    102140    |   114234
        9  | 25:23.10 |  3:25.48 |    114235    |   129657
       10  | 28:48.58 |  1:40.22 |    129658    |   137179
Range status and errors
Selected range
     Filename C:\Users\Pashka\Documents\Kino (Viktor Tsoi) - Neisvestnye Pesni Viktora Tsoya.wav
     Peak level 64.6 %
     Range quality 100.0 %
     Copy CRC A9762771
     Copy OK
No errors occurred
End of status report

Содержание индексной карты (.CUE)

REM GENRE "Rock"
REM DATE 1994
REM DISCID 6B07250A
REM COMMENT "ExactAudioCopy v0.99pb3"
PERFORMER "Виктор Цой"
TITLE "1992 - Неизвестные Песни (Austria - Moroz Records MR 95052 CD - 1994)"
FILE "01. Разреши мне.m4a" WAVE
  TRACK 01 AUDIO
    TITLE "Разреши мне"
    PERFORMER "Виктор Цой"
    PREGAP 00:00:23
    INDEX 01 00:00:00
FILE "02. Братская любовь.m4a" WAVE
  TRACK 02 AUDIO
    TITLE "Братская любовь"
    PERFORMER "Виктор Цой"
    INDEX 01 00:00:00
FILE "03. Ты мог бы....m4a" WAVE
  TRACK 03 AUDIO
    TITLE "Ты мог бы..."
    PERFORMER "Виктор Цой"
    INDEX 01 00:00:00
FILE "04. Любовь - это не шутка.m4a" WAVE
  TRACK 04 AUDIO
    TITLE "Любовь - это не шутка"
    PERFORMER "Виктор Цой"
    INDEX 01 00:00:00
FILE "05. Ты обвела меня вокруг пальца.m4a" WAVE
  TRACK 05 AUDIO
    TITLE "Ты обвела меня вокруг пальца"
    PERFORMER "Виктор Цой"
    INDEX 01 00:00:00
FILE "06. В поисках сюжета.m4a" WAVE
  TRACK 06 AUDIO
    TITLE "В поисках сюжета"
    PERFORMER "Виктор Цой"
    INDEX 01 00:00:00
FILE "07. Весна.m4a" WAVE
  TRACK 07 AUDIO
    TITLE "Весна"
    PERFORMER "Виктор Цой"
    INDEX 01 00:00:00
FILE "08. Последний герой.m4a" WAVE
  TRACK 08 AUDIO
    TITLE "Последний герой"
    PERFORMER "Виктор Цой"
    INDEX 01 00:00:00
FILE "09. Около семи утра.m4a" WAVE
  TRACK 09 AUDIO
    TITLE "Около семи утра"
    PERFORMER "Виктор Цой"
    INDEX 01 00:00:00
FILE "10. Лето.m4a" WAVE
  TRACK 10 AUDIO
    TITLE "Лето"
    PERFORMER "Виктор Цой"
    INDEX 01 00:00:00
- -

Скриншот(ы) тегов iTunes

--
[Профиль] [ЛС]

Создавать темы 13-Авг-2015 10:00 (спустя 2 месяца)

Топик был перенесен из форума Rock (Отечественный) в форум Rock
sergej644
 
Показать сообщения:    

Текущее время: Сегодня 08:49

Часовой пояс: GMT



Вы не можете начинать темы
Вы не можете отвечать на сообщения
Вы не можете редактировать свои сообщения
Вы не можете удалять свои сообщения
Вы не можете голосовать в опросах
Вы не можете прикреплять файлы к сообщениям
Вы не можете скачивать файлы