Кинопередвижка / Caravana cinematografica / Kino Caravan (Титус Мунтян / Titus Muntean) [2009, Румыния, Германия, трагикомедия, DVB-AVC] DVO (Kino Polska)

 
Автор Сообщение

TorrentFilm ®

Пол:

Стаж: 2 года

Сообщений: 7741



Награды: Нет

Торрент-статистика

Создавать темы 15-Июл-2015 00:08

[Цитировать]

Кинопередвижка
Caravana cinematografică- Страна: Румыния, Германия
Жанр: трагикомедия
Год выпуска: 2009
Продолжительность: 01:32:06Перевод: Профессиональный (двухголосый закадровый) по заказу Kino Polska на производственно-технической базе Студии "Акцент"
Cубтитры: нет
Режиссер: Титус Мунтян / Titus Muntean
В ролях: Дориан Богута / Dorian Boguta (Tavi), Мирча Дьякону / Mircea Diaconu (Tanasie), Юлия Луменаре / Iulia Lumânare (Corina)
Описание: Румыния, 1960-е годы. Как-то промозглым дождливым днем в глухую деревушку в Трансильвании заехали двое парней с кинопередвижкой и желанием показать советские пропагандистские фильмы. Местные обыватели восприняли их прибытие с боязнью, настороженностью и нескрываемой враждебностью…
Доп. информация: Filmbox Arthouse IPTV
Награды: 4 награды Gopos Awards, Romania 2011 (художник-постановщик, художник по костюмам, музыка, грим) + 3 номинации (лучший актер второго плана - Mircea Diaconu, лучшая актриса второго плана - Iulia Lumânare, лучший оператор).

Качество видео: DVB-AVC
Формат видео: MKV
Видео: AVC (H.264), 720x576@1024x576 (16:9), 25 fps, ~784 kbps avg, 0.083 bit/pixel
Аудио: MPEG Audio 2, 2 ch, 48 kHz, ~128.00 kbps avg

MediaInfo

ОбщееУникальный идентификатор : 223086394558224892585176752812721968297 (0xA7D4E0727586E2E880E4153D705C14A9)Полное имя : F:\My Torrents 3\[apreder]Caravana_cinematografica(2009)DVB.mkvФормат : MatroskaВерсия формата : Version 2Размер файла : 613 МбайтПродолжительность : 1 ч. 32 м.Общий поток : 931 Кбит/секДата кодирования : UTC 2015-07-12 14:09:16Программа кодирования : mkvmerge v8.1.0 ('Psychedelic Postcard') 64bitБиблиотека кодирования : libebml v1.3.1 + libmatroska v1.4.2Attachements : cover.jpg / cover_small.jpg
ВидеоИдентификатор : 2Формат : AVCФормат/Информация : Advanced Video CodecПрофиль формата : Main@L3Параметр CABAC формата : ДаПараметр ReFrames формата : 3 кадраПараметр GOP формата : M=4, N=32Идентификатор кодека : V_MPEG4/ISO/AVCПродолжительность : 1 ч. 32 м.Битрейт : 784 Кбит/секШирина : 720 пикселейВысота : 576 пикселейСоотношение сторон : 16:9Соотношение сторон в оригинале : 16:9Режим частоты кадров : ПостоянныйЧастота кадров : 22,727 кадра/секЧастота кадров в оригинале : 25,000 кадров/секСтандарт вещания : ComponentЦветовое пространство : YUVСубдискретизация насыщенности : 4:2:0Битовая глубина : 8 битТип развёртки : ЧересстрочнаяПорядок развёртки : Верхнее поле первоеБит/(Пиксели*Кадры) : 0.083Размер потока : 517 Мбайт (84%)Default : ДаForced : Нетcolour_range : LimitedОсновные цвета : BT.601 PALХарактеристики трансфера : BT.470 System B, BT.470 System GКоэффициенты матрицы : BT.601
АудиоИдентификатор : 1Формат : MPEG AudioВерсия формата : Version 1Профиль формата : Layer 2Идентификатор кодека : A_MPEG/L2Идентификатор кодека/Подсказка : MP2Продолжительность : 1 ч. 32 м.Вид битрейта : ПостоянныйБитрейт : 128 Кбит/секКаналы : 2 каналаЧастота : 48,0 КГцМетод сжатия : С потерямиЗадержка видео : -6 мс.Размер потока : 84,3 Мбайт (14%)Язык : RussianDefault : ДаForced : Нет

Скриншот c названием фильма

Скриншоты


Резервные скриншоты


-[2'462]
[Профиль] [ЛС]

Создавать темы 06-Авг-2015 22:23 (спустя 22 дня)

Топик был перенесен из форума Фильмы до 2014 года в форум Фильмы до 2012 года
sergej644
 

Создавать темы 12-Июн-2016 08:49 (спустя 10 месяцев 28 дней)

Топик был перенесен из форума Фильмы 2011 года в форум Фильмы 2009 года
Russian Mafia
 
Кто просматривает тему:

Форум Тема Автор Размер
Программы [Справочник] КиноПоиск v3.4.3 [Android 2.1+, RUS] TorrentFilm 6 MB
Фильмы 2010 года Безудержная / Abandoned (Майкл Фейфер / Michael Feifer) [2010, США, триллер, драма, детектив, HDRip] MVO (Кинопоказ) + Original Eng reversefile 1.45 GB
Фильмы (DVD 5/9) Благословите женщину (Станислав Говорухин) [2003, Россия, драма, мелодрама, киноповесть, DVD5] Sub Rus TorrentFilm 4.36 GB
Фильмы 2011 года Большие спорщики / The Great Debaters (Дензел Вашингтон / Denzel Washington) [2007, США, Драма, биография, BDRip] MVO (Кинопоказ) TorrentFilm 1.46 GB
Фильмы 2011 года Большие спорщики / The Great Debaters (Дензел Вашингтон / Denzel Washington) [2007, США, драма, биография, HDRip] MVO (Кинопоказ) + Original Eng TorrentFilm 2.19 GB
Фильмы 2009 года Бунтующая юность / Протест молодости / Youth in Revolt (Мигель Артета / Miguel Arteta) [2009, США, драма, мелодрама, комедия, HDRip] MVO (OzzTV) + MVO (Кинопоказ) + Original Eng TorrentFilm 1.46 GB
Фильмы 2011 года Бывший / Broken (Алан Уайт / Alan White) [2006, США, триллер, драма, HDTVRip] MVO (Кинопоказ) TorrentFilm 1.46 GB
Фильмы 2009 года В любви все средства хороши / All\'s Faire in Love (Скотт Маршалл / Scott Marshall) [2009, США, комедия, DVDRip] MVO (Кинопоказ) + Original Eng TorrentFilm 1.51 GB
Показать сообщения:    

Текущее время: Сегодня 14:08

Часовой пояс: GMT



Вы не можете начинать темы
Вы не можете отвечать на сообщения
Вы не можете редактировать свои сообщения
Вы не можете удалять свои сообщения
Вы не можете голосовать в опросах
Вы не можете прикреплять файлы к сообщениям
Вы не можете скачивать файлы