Киндер-Вилейское привидение (Елена Турова) [2014, фэнтези, комедия, семейный, SATRip]

 
Автор Сообщение

sergej644 ®

Пол:

Стаж: 4 года 11 месяцев

Сообщений: 6046

Откуда: Soviet Union



Награды: Нет

Торрент-статистика

Создавать темы 17-Авг-2014 09:54

[Цитировать]

Киндер-Вилейское привидение

Жанр: фэнтези, комедия, семейный
Год выпуска: 2014
Продолжительность: 01:30:56
Режиссёр: Елена Турова
В ролях: Сергей Журавель, Зоя Белохвостик, Виктор Манаев, Вячеслав Павлють, Роман Подоляко, Алеся Самоховец, Артём Боровик, Влад Боровик
Описание: Некогда подающий надежды продюсер Костя теперь не у дел: его креативная задумка, обещавшая автору славу и богатство, с треском провалилась. И нынче горе-шоумену не остаётся ничего другого, как переехать с семьёй в Вилейский район Беларуси. Здесь его родовое гнездо — доставшаяся в наследство старинная усадьба с потрясающим парком. Хм, может, ещё не всё потеряно? Находчивый предприниматель решается на довольно рискованный шаг. А что если превратить имение в... городок аттракционов под названием «Киндер-Виль» — этакий белорусский Диснейленд?! Идея приходится по душе всем, кроме самого древнего обитателя дома — злого духа волшебника, в стародавние времена замурованного в подвале за жестокость. Ни один уважающий себя призрак не станет терпеть толпы галдящих детишек по соседству! Значит, во что бы то ни стало необходимо выдворить шумое семейство...
Сэмпл: http://multi-up.com/992793
Качество видео: SATRip
Формат видео: AVI
Видео кодек: XviD
Аудио кодек: MPEG Audio
Видео: 720x400 (1.80:1), 25 fps, XviD build 50 ~2013 kbps avg, 0.28 bit/pixel
Аудио: 48 kHz, MPEG Layer 3, 2 ch, ~128.00 kbps avg

MediaInfo

Формат : AVI
Формат/Информация : Audio Video Interleave
Размер файла : 1,37 Гбайт
Продолжительность : 1 ч. 30 м.
Общий поток : 2152 Кбит/сек
Программа кодирования : VirtualDubMod 1.5.10.3 | www.virtualdub-fr.org || (build 2550/release)
Библиотека кодирования : VirtualDubMod build 2550/release
Видео
Идентификатор : 0
Формат : MPEG-4 Visual
Профиль формата : Advanced Simple@L5
Параметр BVOP формата : 2
Параметр QPel формата : Нет
Параметр GMC формата : Без точки перехода
Параметр матрицы формата : Default (H.263)
Идентификатор кодека : XVID
Идентификатор кодека/Подсказка : XviD
Продолжительность : 1 ч. 30 м.
Битрейт : 2014 Кбит/сек
Ширина : 720 пикселей
Высота : 400 пикселей
Соотношение сторон : 16:9
Частота кадров : 25,000 кадров/сек
Цветовое пространство : YUV
Субдискретизация насыщенности : 4:2:0
Битовая глубина : 8 бит
Тип развёртки : Прогрессивная
Метод сжатия : С потерями
Бит/(Пиксели*Кадры) : 0.280
Размер потока : 1,28 Гбайт (94%)
Библиотека кодирования : XviD 1.2.1 (UTC 2008-12-04)
Аудио
Идентификатор : 1
Формат : MPEG Audio
Версия формата : Version 1
Профиль формата : Layer 3
Режим : Joint stereo
Расширение режима : MS Stereo
Идентификатор кодека : 55
Идентификатор кодека/Подсказка : MP3
Продолжительность : 1 ч. 30 м.
Вид битрейта : Постоянный
Битрейт : 128 Кбит/сек
Каналы : 2 канала
Частота : 48,0 КГц
Метод сжатия : С потерями
Размер потока : 83,3 Мбайт (6%)
Выравнивание : Соединение по промежуткам
Продолжительность промежутка : 40 мс. (1,00 видеокадр)
Время предзагрузки промежутка : 504 мс.
Библиотека кодирования : LAME3.99r
Настройки программы : -m j -V 4 -q 9 -lowpass 17 -b 128

Скриншоты

[Профиль] [ЛС]
Кто просматривает тему:

Показать сообщения:    

Текущее время: Сегодня 22:41

Часовой пояс: GMT



Вы не можете начинать темы
Вы не можете отвечать на сообщения
Вы не можете редактировать свои сообщения
Вы не можете удалять свои сообщения
Вы не можете голосовать в опросах
Вы не можете прикреплять файлы к сообщениям
Вы не можете скачивать файлы