Кинг Конг / King Kong (2005) BDRip 1080p | Theatrical Cut

 
Автор Сообщение

sergej644 ®

Пол:

Стаж: 4 года 11 месяцев

Сообщений: 6046

Откуда: Soviet Union



Награды: Нет

Торрент-статистика

Создавать темы 31-Окт-2014 15:24

[Цитировать]

--Кинг Конг / King Kong (2005)
Информация о фильме
Название: Кинг Конг
Оригинальное: King Kong
Год выхода: 2005
Страна: Германия, США, Новая Зеландия
Выпущено: Big Primate Pictures, MFPV Film, Universal Pictures, WingNut Films
Жанр: Приключения, боевик, драма, мелодрама, ремейк
Продолжительность: 03:07:15
Перевод: Профессиональный (Дублированный)
Режиссер: Питер Джексон
В ролях: Наоми Уоттс, Джек Блэк, Эдриан Броуди, Томас Кречманн, Колин Хэнкс, Энди Серкис, Ивэн Декстер Парк, Джэми Белл, Лобо Чан, Джон Саммер, Крэйг Холл, Кайл Чандлер, Билл Джонсон, Марк Хэдлоу, Джеральдин Брофи, Дэвид Дэнис, Дэвид Питту, Пип Мушин, Джим Нобелок, Рик Херберт, Ли Донахью-Сюжет фильма
В 1930-м году съемочная группа под предводительством режиссера-неудачника Карла Дэнхэма отправляется на загадочный Остров Черепа неподалеку от Суматры, чтобы изучать легенды о гигантской горилле по кличке Конг. По прибытии на место они обнаруживают, что Кинг Конг и правда существует. Горилла живет в самой чаще непроходимых джунглей, где помимо него, спрятанные от всего мира, обитают многие создания из доисторических времен. Исследователи оказываются между двух огней - с одной стороны Кинг Конг, а с другой - его враги динозавры...
-Файл
Кодек: x264
Формат: MKV
Качество: BDRip 1080p (Источник: Blu-ray Disc)
Видео: MPEG-4 AVC (2.35:1) 1920x816, 23.976 fps, 7738 kbps, 0.206 Bit/Pixel
Аудио:
#1: Dolby Digital (5.1) 16 bit, 48 kHz, 448 kbps (Rus)
#2: Dolby Digital (5.1) 16 bit, 48 kHz, 640 kbps (Original)
Субтитры: SRT Русские, Английские
Меню: Сохранены оригинальные чаптеры Blu-ray--

MI & x264

General
Unique ID : 176357531069672804701468577713114472201 (0x84AD3999A2778F8294721158FF2E5F09)
Format : Matroska
Format version : Version 2
File size : 11.5 GiB
Duration : 3h 7mn
Overall bit rate : 8 826 Kbps
Movie name : Кинг Конг (2005) BDRip (1080p)
Encoded date : UTC 2013-03-29 09:40:28
Writing application : mkvmerge v5.8.0 ('No Sleep / Pillow') built on Sep 2 2012 15:37:04
Writing library : libebml v1.2.3 + libmatroska v1.3.0
Video
ID : 1
Format : AVC
Format/Info : Advanced Video Codec
Format profile : High@L4.1
Format settings, CABAC : Yes
Format settings, ReFrames : 5 frames
Codec ID : V_MPEG4/ISO/AVC
Duration : 3h 7mn
Bit rate : 7 738 Kbps
Width : 1 920 pixels
Height : 816 pixels
Display aspect ratio : 2.35:1
Frame rate mode : Constant
Frame rate : 23.976 fps
Color space : YUV
Chroma subsampling : 4:2:0
Bit depth : 8 bits
Scan type : Progressive
Bits/(Pixel*Frame) : 0.206
Stream size : 9.89 GiB (86%)
Title : Release by Alex260680
Writing library : x264 core 130 r2273 b3065e6
Encoding settings : cabac=1 / ref=5 / deblock=1:-3:-3 / analyse=0x3:0x133 / me=umh / subme=11 / psy=1 / psy_rd=1.00:0.00 / mixed_ref=1 / me_range=32 / chroma_me=1 / trellis=2 / 8x8dct=1 / cqm=0 / deadzone=21,11 / fast_pskip=0 / chroma_qp_offset=-2 / threads=12 / lookahead_threads=1 / sliced_threads=0 / nr=0 / decimate=0 / interlaced=0 / bluray_compat=0 / constrained_intra=0 / bframes=5 / b_pyramid=2 / b_adapt=2 / b_bias=0 / direct=3 / weightb=1 / open_gop=0 / weightp=2 / keyint=240 / keyint_min=23 / scenecut=40 / intra_refresh=0 / rc=2pass / mbtree=0 / bitrate=7738 / ratetol=1.0 / qcomp=0.60 / qpmin=0 / qpmax=69 / qpstep=4 / cplxblur=20.0 / qblur=0.5 / ip_ratio=1.40 / pb_ratio=1.30 / aq=1:0.70
Language : English
Default : Yes
Forced : No
Audio #1
ID : 2
Format : AC-3
Format/Info : Audio Coding 3
Mode extension : CM (complete main)
Format settings, Endianness : Big
Codec ID : A_AC3
Duration : 3h 7mn
Bit rate mode : Constant
Bit rate : 448 Kbps
Channel(s) : 6 channels
Channel positions : Front: L C R, Side: L R, LFE
Sampling rate : 48.0 KHz
Bit depth : 16 bits
Compression mode : Lossy
Stream size : 600 MiB (5%)
Title : DUB
Language : Russian
Default : Yes
Forced : No
Audio #2
ID : 3
Format : AC-3
Format/Info : Audio Coding 3
Mode extension : CM (complete main)
Format settings, Endianness : Big
Codec ID : A_AC3
Duration : 3h 7mn
Bit rate mode : Constant
Bit rate : 640 Kbps
Channel(s) : 6 channels
Channel positions : Front: L C R, Side: L R, LFE
Sampling rate : 48.0 KHz
Bit depth : 16 bits
Compression mode : Lossy
Stream size : 857 MiB (7%)
Title : Original
Language : English
Default : No
Forced : No
Text #1
ID : 4
Format : UTF-8
Codec ID : S_TEXT/UTF8
Codec ID/Info : UTF-8 Plain Text
Language : Russian
Default : No
Forced : No
Text #2
ID : 5
Format : UTF-8
Codec ID : S_TEXT/UTF8
Codec ID/Info : UTF-8 Plain Text
Language : English
Default : No
Forced : No
Menu
00:00:00.000 : en:Chapter1
00:03:02.808 : en:Chapter2
00:04:20.802 : en:Chapter3
00:06:43.945 : en:Chapter4
00:10:29.671 : en:Chapter5
00:12:33.211 : en:Chapter6
00:14:18.399 : en:Chapter7
00:17:40.893 : en:Chapter8
00:20:25.850 : en:Chapter9
00:24:13.285 : en:Chapter10
00:25:55.637 : en:Chapter11
00:26:13.363 : en:Chapter12
00:28:00.637 : en:Chapter13
00:30:29.536 : en:Chapter14
00:31:07.449 : en:Chapter15
00:33:07.360 : en:Chapter16
00:34:14.511 : en:Chapter17
00:36:55.880 : en:Chapter18
00:39:45.675 : en:Chapter19
00:41:07.507 : en:Chapter20
00:42:31.716 : en:Chapter21
00:43:45.873 : en:Chapter22
00:52:20.179 : en:Chapter23
00:55:49.930 : en:Chapter24
01:02:07.265 : en:Chapter25
01:07:32.799 : en:Chapter26
01:12:39.480 : en:Chapter27
01:14:28.798 : en:Chapter28
01:17:53.335 : en:Chapter29
01:20:12.016 : en:Chapter30
01:26:50.372 : en:Chapter31
01:27:46.428 : en:Chapter32
01:29:27.529 : en:Chapter33
01:36:13.059 : en:Chapter34
01:39:57.116 : en:Chapter35
01:51:36.356 : en:Chapter36
01:57:19.324 : en:Chapter37
02:01:29.657 : en:Chapter38
02:04:02.143 : en:Chapter39
02:09:46.696 : en:Chapter40
02:18:05.694 : en:Chapter41
02:20:00.892 : en:Chapter42
02:21:51.336 : en:Chapter43
02:31:00.927 : en:Chapter44
02:35:34.325 : en:Chapter45
02:40:07.640 : en:Chapter46
02:41:13.163 : en:Chapter47
02:43:31.802 : en:Chapter48
02:51:05.380 : en:Chapter49
02:57:42.151 : en:Chapter50-x264 [info]: frame I:2133 Avg QP:18.23 size:181731
x264 [info]: frame P:85708 Avg QP:21.13 size: 65053
x264 [info]: frame B:181547 Avg QP:23.20 size: 27001
ДополнительноИспользуемое программное обеспечение: "Eac3to", "XviD4PSP", "Sonic Foundry Soft Encode", "SupRip", "MKVToolNix"
-Скриншоты

-
[Профиль] [ЛС]
Кто просматривает тему:

Показать сообщения:    

Текущее время: Сегодня 05:17

Часовой пояс: GMT



Вы не можете начинать темы
Вы не можете отвечать на сообщения
Вы не можете редактировать свои сообщения
Вы не можете удалять свои сообщения
Вы не можете голосовать в опросах
Вы не можете прикреплять файлы к сообщениям
Вы не можете скачивать файлы