Киллер / Le tueur (Седрик Анже / Cédric Anger) [2007, Франция, триллер, DVDRip] DVO (НТВ+) + Original Fre

 
Автор Сообщение

TorrentFilm ®

Пол:

Стаж: 2 года

Сообщений: 7741



Награды: Нет

Торрент-статистика

Создавать темы 09-Окт-2015 00:10

[Цитировать]

Киллер / Le tueur
Страна: Франция
Жанр: триллер
Год выпуска: 2007
Продолжительность: 01:35:31
Перевод: Профессиональный (двухголосый закадровый) НТВ+
Cубтитры: нет
Оригинальная аудиодорожка: французский
Режиссер: Седрик Анже /Cédric Anger
В ролях: Жильбер Мелки, Грегуар Колен, Мелани Лоран, Софи Каттани, Ксавье Бовуа, Джинн Аллард, Jean-François Leforsonney, Сами Зитуни, Рено Гаст, Алин Чеу
Описание: Накануне Рождества в парижский офис к бизнесмену Лео Циммерману под видом обыкновенного клиента заявляется некто Дмитрий Копас, однако привычный к риску биржевой игрок быстро догадывается, что визитер на самом деле наемный убийца. Поначалу перепуганный Лео теряет покой и сон, однако вскоре решает встретиться с киллером и предложить ему довольно необычное соглашение…
Сэмпл: http://multi-up.com/1069379

Качество видео: DVDRip - Исходник
Формат видео: AVI
Видео: 704x384 (1.83:1), 23.976 fps, XviD, 1787 kbps, 0.28 bit/pixel
Аудио 1: 48 kHz, AC3 Dolby Digital, 2/0 (L,R) ch, 192 kbps, DVO (НТВ+)
Аудио 2: 48 kHz, AC3 Dolby Digital, 2/0 (L,R) ch, 192 kbps, Original (Fre)

MediaInfo

General
Complete name : E:\Раздачи\torrentfilm.net\Killer_1.46_by_max1wq.avi
Format : AVI
Format/Info : Audio Video Interleave
File size : 1.46 GiB
Duration : 1h 35mn
Overall bit rate : 2 186 Kbps
Writing application : VirtualDubMod 1.5.10.2 (build 2540/release)
Writing library : VirtualDubMod build 2540/release
Video
ID : 0
Format : MPEG-4 Visual
Format profile : Advanced Simple@L5
Format settings, BVOP : 1
Format settings, QPel : No
Format settings, GMC : No warppoints
Format settings, Matrix : Custom
Codec ID : XVID
Codec ID/Hint : XviD
Duration : 1h 35mn
Bit rate : 1 788 Kbps
Width : 704 pixels
Height : 384 pixels
Display aspect ratio : 1.85:1
Frame rate : 23.976 fps
Color space : YUV
Chroma subsampling : 4:2:0
Bit depth : 8 bits
Scan type : Progressive
Compression mode : Lossy
Bits/(Pixel*Frame) : 0.276
Stream size : 1.19 GiB (82%)
Writing library : XviD 73
Audio #1
ID : 1
Format : AC-3
Format/Info : Audio Coding 3
Mode extension : CM (complete main)
Format settings, Endianness : Big
Codec ID : 2000
Duration : 1h 35mn
Bit rate mode : Constant
Bit rate : 192 Kbps
Channel(s) : 2 channels
Channel positions : Front: L R
Sampling rate : 48.0 KHz
Compression mode : Lossy
Stream size : 131 MiB (9%)
Alignment : Split accross interleaves
Interleave, duration : 42 ms (1.00 video frame)
Interleave, preload duration : 500 ms
Audio #2
ID : 2
Format : AC-3
Format/Info : Audio Coding 3
Mode extension : CM (complete main)
Format settings, Endianness : Big
Codec ID : 2000
Duration : 1h 35mn
Bit rate mode : Constant
Bit rate : 192 Kbps
Channel(s) : 2 channels
Channel positions : Front: L R
Sampling rate : 48.0 KHz
Compression mode : Lossy
Stream size : 131 MiB (9%)
Alignment : Split accross interleaves
Interleave, duration : 42 ms (1.00 video frame)
Interleave, preload duration : 500 ms
[Профиль] [ЛС]
Показать сообщения:    

Текущее время: Сегодня 12:49

Часовой пояс: GMT



Вы не можете начинать темы
Вы не можете отвечать на сообщения
Вы не можете редактировать свои сообщения
Вы не можете удалять свои сообщения
Вы не можете голосовать в опросах
Вы не можете прикреплять файлы к сообщениям
Вы не можете скачивать файлы