Киллер / Le tueur (Седрик Анже / Cédric Anger) [2007, Франция, триллер, DVDRip] DVO (НТВ+)

 
Автор Сообщение

TorrentFilm ®

Пол:

Стаж: 2 года

Сообщений: 7741



Награды: Нет

Торрент-статистика

Создавать темы 08-Окт-2015 00:07

[Цитировать]

Киллер / Le tueur
Страна: Франция
Жанр: триллер
Год выпуска: 2007
Продолжительность: 01:35:31
Перевод: Профессиональный (двухголосый закадровый) НТВ+
Cубтитры: нет
Режиссер: Седрик Анже /Cédric Anger
В ролях: Жильбер Мелки, Грегуар Колен, Мелани Лоран, Софи Каттани, Ксавье Бовуа, Джинн Аллард, Jean-François Leforsonney, Сами Зитуни, Рено Гаст, Алин Чеу
Описание: Накануне Рождества в парижский офис к бизнесмену Лео Циммерману под видом обыкновенного клиента заявляется некто Дмитрий Копас, однако привычный к риску биржевой игрок быстро догадывается, что визитер на самом деле наемный убийца. Поначалу перепуганный Лео теряет покой и сон, однако вскоре решает встретиться с киллером и предложить ему довольно необычное соглашение…
Сэмпл: http://multi-up.com/1069380

Качество видео: DVDRip - Исходник
Формат видео: AVI
Видео: 640x352 (1.82:1), 23.976 fps, XviD, 951 kbps, 0.18 bit/pixel
Аудио: 48 kHz, MPEG Layer 3, 2 ch, 128.00 kbps, DVO (НТВ+)

MediaInfo

General
Complete name : E:\Раздачи\torrentfilm.net\Killer_745_by_max1wq.avi
Format : AVI
Format/Info : Audio Video Interleave
File size : 744 MiB
Duration : 1h 35mn
Overall bit rate : 1 089 Kbps
Writing application : VirtualDubMod 1.5.10.2 (build 2540/release)
Writing library : VirtualDubMod build 2540/release
Video
ID : 0
Format : MPEG-4 Visual
Format profile : Advanced Simple@L5
Format settings, BVOP : 1
Format settings, QPel : No
Format settings, GMC : No warppoints
Format settings, Matrix : Custom
Codec ID : XVID
Codec ID/Hint : XviD
Duration : 1h 35mn
Bit rate : 952 Kbps
Width : 640 pixels
Height : 352 pixels
Display aspect ratio : 16:9
Frame rate : 23.976 fps
Color space : YUV
Chroma subsampling : 4:2:0
Bit depth : 8 bits
Scan type : Progressive
Compression mode : Lossy
Bits/(Pixel*Frame) : 0.176
Stream size : 650 MiB (87%)
Writing library : XviD 73
Audio
ID : 1
Format : MPEG Audio
Format version : Version 1
Format profile : Layer 3
Codec ID : 55
Codec ID/Hint : MP3
Duration : 1h 35mn
Bit rate mode : Constant
Bit rate : 128 Kbps
Channel(s) : 2 channels
Sampling rate : 48.0 KHz
Compression mode : Lossy
Stream size : 87.4 MiB (12%)
Alignment : Aligned on interleaves
Interleave, duration : 42 ms (1.00 video frame)
Interleave, preload duration : 504 ms
Сравнениеhttp://torrentfilm.net/forum/viewtopic.php?t=2690158
http://screenshotcomparison.com/comparison/145200/picture:0
[Профиль] [ЛС]
Показать сообщения:    

Текущее время: Сегодня 02:30

Часовой пояс: GMT



Вы не можете начинать темы
Вы не можете отвечать на сообщения
Вы не можете редактировать свои сообщения
Вы не можете удалять свои сообщения
Вы не можете голосовать в опросах
Вы не можете прикреплять файлы к сообщениям
Вы не можете скачивать файлы