Киллер Джо / Killer Joe (2011) Blu-ray Remux 1080p от MediaClub | D

 
Автор Сообщение

sergej644 ®

Пол:

Стаж: 4 года 11 месяцев

Сообщений: 6046

Откуда: Soviet Union



Награды: Нет

Торрент-статистика

Создавать темы 16-Фев-2015 19:06

[Цитировать]

Информация о фильме
Название: Киллер Джо
Оригинальное название: Killer Joe
Год выпуска: 2011
Жанр: Триллер, комедия, криминал, экранизация
Режиссер: Уильям Фридкин
В ролях: Мэттью МакКонахи, Эмиль Хирш, Джуно Темпл, Томас Хейден Чёрч, Джина Гершон, Скотт А. Мартин, Грэйлен Брайант Бэнкс, Кэрол Саттон, Дэнни Эппер, Джефф Галпин, Марк Маколей, Грегори С. Башо, Чарли Вэнс, Джулия Адамс, Блэйн Санчез
О фильме:Фильм рассказывает о молодом человеке, который замышляет убийство злой матери, чтобы получить деньги по страховке и рассчитаться с долгами, и по этому случаю заключает договор с киллером Джо - копом и наемным убийцей. Несмотря на монотонность движения сюжета и немалое количество ляпов, фильм имеет право на включение в список самых шокирующих драм с элементами триллера и черной американской сатиры, проявляющейся со всех сторон. Многие критики назвали этот фильм триумфальным возвращением Уильяма Фридкина и одним из самых сильных фильмов с участием Мэттью МакКонахи. Экранизация по произведению: Трэйси Леттс.

Страна: США
Студия: ANA Media, Voltage Pictures, Worldview Entertainment
Продолжительность: 01:42:20
Перевод: Дублированный
Файл
Кодек: x264
Качество: Blu-ray Remux 1080p
Видео: MPEG-4 AVC, 27900 Кбит/с, 1920x1080, 23.976 кадр/с
Аудио #1: Русский (AC3, 6 ch, 640 Кбит/с) / Дублированный
Аудио #2: Английский (DTS, 6 ch, 1510 Кбит/с)
Субтитры: Русские, английские
Семпл

О релизе

Сохранены оригинальные чаптеры (главы) Blu-Ray
Remux by _paravoz_

MI

Полное имя                : C:Killer.Dzho.2011.x264.BluRay.Remux.mkv
Формат                  : Matroska
Версия формата              : Version 2
Размер файла               : 21,9 Гбайт
Продолжительность            : 1 ч. 42 м.
Режим общего битрейта          : Переменный
Общий поток               : 30,7 Мбит/сек
Название фильма             : =MediaClub= by =parravoz=
Дата кодирования             : UTC 2014-11-01 23:50:56
Программа кодирования          : mkvmerge v5.8.0 ('No Sleep / Pillow') built on Sep 2 2012 15:37:04
Библиотека кодирования          : libebml v1.2.3 + libmatroska v1.3.0
Attachment                : Yes
Видео
Идентификатор              : 1
Формат                  : AVC
Формат/Информация            : Advanced Video Codec
Профиль формата             : High@L4.1
Параметр CABAC формата          : Да
Параметр ReFrames формата        : 4 кадра
Идентификатор кодека           : V_MPEG4/ISO/AVC
Продолжительность            : 1 ч. 42 м.
Вид битрейта               : Переменный
Битрейт                 : 27,9 Мбит/сек
Максимальный битрейт           : 32,0 Мбит/сек
Ширина                  : 1920 пикселей
Высота                  : 1080 пикселей
Соотношение сторон            : 16:9
Режим частоты кадров           : Постоянный
Частота кадров              : 23,976 кадра/сек
Цветовое пространство          : YUV
Субдискретизация насыщенности      : 4:2:0
Битовая глубина             : 8 бит
Тип развёртки              : Прогрессивная
Бит/(Пиксели*Кадры)           : 0.562
Размер потока              : 20,0 Гбайт (91%)
Заголовок                : Killer Dzho / Killer Joe / 2011
Default                 : Да
Forced                  : Нет
Аудио #1
Идентификатор              : 2
Формат                  : AC-3
Формат/Информация            : Audio Coding 3
Расширение режима            : CM (complete main)
Параметр Endianness формата       : Big
Идентификатор кодека           : A_AC3
Продолжительность            : 1 ч. 42 м.
Вид битрейта               : Постоянный
Битрейт                 : 640 Кбит/сек
Каналы                  : 6 каналов
Расположение каналов           : Front: L C R, Side: L R, LFE
Частота                 : 48,0 КГц
Битовая глубина             : 16 бит
Метод сжатия               : С потерями
Размер потока              : 468 Мбайт (2%)
Заголовок                : DUB (R5)
Язык                   : Russian
Default                 : Да
Forced                  : Нет
Аудио #2
Идентификатор              : 3
Формат                  : DTS
Формат/Информация            : Digital Theater Systems
Режим                  : 16
Параметр Endianness формата       : Big
Идентификатор кодека           : A_DTS
Продолжительность            : 1 ч. 42 м.
Вид битрейта               : Постоянный
Битрейт                 : 1509 Кбит/сек
Каналы                  : 6 каналов
Расположение каналов           : Front: L C R, Side: L R, LFE
Частота                 : 48,0 КГц
Битовая глубина             : 24 бит
Метод сжатия               : С потерями
Размер потока              : 1,08 Гбайт (5%)
Заголовок                : Original (ENG)
Язык                   : English
Default                 : Нет
Forced                  : Нет
Текст #1
Идентификатор              : 4
Формат                  : UTF-8
Идентификатор кодека           : S_TEXT/UTF8
Идентификатор кодека/Информация     : UTF-8 Plain Text
Заголовок                : FULL
Язык                   : Russian
Default                 : Нет
Forced                  : Нет
Текст #2
Идентификатор              : 5
Формат                  : UTF-8
Идентификатор кодека           : S_TEXT/UTF8
Идентификатор кодека/Информация     : UTF-8 Plain Text
Заголовок                : SRT
Язык                   : English
Default                 : Нет
Forced                  : Нет
Текст #3
Идентификатор              : 6
Формат                  : UTF-8
Идентификатор кодека           : S_TEXT/UTF8
Идентификатор кодека/Информация     : UTF-8 Plain Text
Заголовок                : _Remux_by_paravoz_
Язык                   : English
Default                 : Нет
Forced                  : Нет
Меню
00:00:00.000               : en:Chapter 01
00:05:22.530               : en:Chapter 02
00:11:46.288               : en:Chapter 03
00:12:40.968               : en:Chapter 04
00:20:10.209               : en:Chapter 05
00:25:42.040               : en:Chapter 06
00:30:17.524               : en:Chapter 07
00:33:37.557               : en:Chapter 08
00:40:12.618               : en:Chapter 09
00:46:02.634               : en:Chapter 10
00:51:38.678               : en:Chapter 11
00:55:13.852               : en:Chapter 12
01:00:56.027               : en:Chapter 13
01:06:22.895               : en:Chapter 14
01:10:40.986               : en:Chapter 15
01:12:07.156               : en:Chapter 16
01:15:33.362               : en:Chapter 17
01:20:32.953               : en:Chapter 18
01:31:05.585               : en:Chapter 19
01:37:55.870               : en:Chapter 20

Скриншоты



--
[Профиль] [ЛС]
Показать сообщения:    

Текущее время: Сегодня 18:50

Часовой пояс: GMT



Вы не можете начинать темы
Вы не можете отвечать на сообщения
Вы не можете редактировать свои сообщения
Вы не можете удалять свои сообщения
Вы не можете голосовать в опросах
Вы не можете прикреплять файлы к сообщениям
Вы не можете скачивать файлы