Кикнур. России частица (Роман Заяц) [2013, Документальный, HDRip 1080p]

 
Автор Сообщение

TorrentFilm ®

Пол:

Стаж: 2 года

Сообщений: 7741



Награды: Нет

Торрент-статистика

Создавать темы 22-Дек-2014 02:00

[Цитировать]

Кикнур. России частица
Год выпуска: 2013
Страна: Россия
Жанр: Документальный
Продолжительность: 00:37:35
Русские субтитры: нет
Режиссер: Роман Заяц
Описание: Документальный фильм "Кикнур. России Частица". Съемки фильма проходили в Кикнурском районе Кировской области с 2011 по 2013 годы. Идея, видеосъемка, монтаж - Роман Заяц. Закадровый текст - Ольга Вершинина. Звукооператор закадрового текста и песен кикнурских коллективов - Евгений Михалёв.
Тип релиза: HDRip 1080p
Качество: HDRip
Формат: MP4
Видео: Кодек MPEG-4, Кодек MPEG-4, Ширина x Высота: 1920 x 1080, Пропорциональность: 16:9, Число кадров: 30.000, Скорость передачи: 13374 Кбит/сек
Аудио: Язык: русский, Кодек: AAC, Каналы: 2, Частота дискретизации: 32 кГц, Битрейт: 128 Кбит/сек

MediaInfo

Формат : MPEG-4Профиль формата : Base MediaИдентификатор кодека : isomРазмер файла : 3,55 ГбайтПродолжительность : 37 м.Режим общего битрейта : ПеременныйОбщий поток : 13,5 Мбит/секДата кодирования : UTC 2013-05-12 20:56:13Дата пометки : UTC 2013-05-12 20:56:13
ВидеоИдентификатор : 1Формат : AVCФормат/Информация : Advanced Video CodecПрофиль формата : Main@L4.0Параметр CABAC формата : ДаПараметр ReFrames формата : 2 кадраПараметр GOP формата : M=3, N=15Идентификатор кодека : avc1Идентификатор кодека/Информация : Advanced Video CodingПродолжительность : 37 м.Вид битрейта : ПеременныйБитрейт : 13,4 Мбит/секМаксимальный битрейт : 15,0 Мбит/секШирина : 1920 пикселейВысота : 1080 пикселейСоотношение сторон : 16:9Режим частоты кадров : ПостоянныйЧастота кадров : 30,000 кадров/секСтандарт вещания : NTSCЦветовое пространство : YUVСубдискретизация насыщенности : 4:2:0Битовая глубина : 8 битТип развёртки : ПрогрессивнаяБит/(Пиксели*Кадры) : 0.215Размер потока : 3,51 Гбайт (99%)Язык : EnglishДата кодирования : UTC 2013-05-12 20:56:13Дата пометки : UTC 2013-05-12 20:56:13Основные цвета : BT.709Характеристики трансфера : BT.709Коэффициенты матрицы : BT.709
АудиоИдентификатор : 2Формат : AACФормат/Информация : Advanced Audio CodecПрофиль формата : LCИдентификатор кодека : 40Продолжительность : 37 м.Вид битрейта : ПостоянныйБитрейт : 128 Кбит/секКаналы : 2 каналаРасположение каналов : Front: L RЧастота : 32,0 КГцМетод сжатия : С потерямиРазмер потока : 34,5 Мбайт (1%)Язык : EnglishДата кодирования : UTC 2013-05-12 20:56:13Дата пометки : UTC 2013-05-12 20:56:13
[Профиль] [ЛС]
Кто просматривает тему:

Показать сообщения:    

Текущее время: Сегодня 00:20

Часовой пояс: GMT



Вы не можете начинать темы
Вы не можете отвечать на сообщения
Вы не можете редактировать свои сообщения
Вы не можете удалять свои сообщения
Вы не можете голосовать в опросах
Вы не можете прикреплять файлы к сообщениям
Вы не можете скачивать файлы