Кибер / Blackhat (2015) DVD5

 
Автор Сообщение

BOSS ®

Пол:

Стаж: 2 года 1 месяц

Сообщений: 3748

Откуда: ODESSA



Награды: 20 (Подробнее)

Mega Releaser 3 (Количество: 1) Top Releaser 2 (Количество: 1) Top Seeder 4 (Количество: 1)
Торрент-статистика

Создавать темы 29-Янв-2016 05:42

[Цитировать]

--Информация о фильме
Название: Кибер
Оригинальное название: Blackhat
Год выхода: 2015
Жанр: боевик, триллер, драма, криминал, детектив
Режиссер: Майкл Манн
В ролях: Крис Хемсворт, Ван Лихом, Тан Вэй, Виола Дэвис, Холт МакКэллани, Энди Он, Ричи Костер, Кристиан Борл, Джон Ортис, Йорик ван Вагенинген-О фильме:
Спокойная, размеренная жизнь современного мирового пространства. Кажется, что ничто не может нарушить равномерный, плавный ход событий, жизнь настолько механизирована, все рассчитано до мельчайшей детали, казалось бы, что может произойти? Какое событие может выбить из колеи столь идеально отлаженную машину? Однако именно разработки в области новейших технологий представляют главную угрозу человечеству. Лучшие ученые умы из США и Китая объединяют силы в борьбе против самой мощной кибернетической атаки.- -Страна: США
Студия: Forward Pass, Legendary Pictures
Продолжительность: 128 мин. / 02:08
Перевод: полное дублирование-Файл
Кодек: MPEG2
Качество: DVD5 (сжатый)
Видео: PAL 16:9 (720x576@1024x576) VBR 4049 Kbps, 25.000 fps
Аудио: Dolby AC3, 6 ch, 48.0 KHz, 384 Кbps (русский, английский)
Субтитры: русские, английские, чешские, венгерские, болгарские, хорватские, эстонские, греческие, иврит, латышские, литовские, польские, румынские, словацкие--

Процесс изготовления диска

Исходник: Кибер / Blackhat (2015) DVD9 | Лицензия
Удалены: доп. материалы, предупреждающие надписи, чешская, венгерская и польская звуковые дорожки (в меню кнопки затерты). Команды диска переписаны заново, оставлен один VTS.
Видео сжато на 27,7%
Меню: статичное, недействующие кнопки затерты и закрыты.
Обработка и сжатие: DVD ReMake Pro + DVD Rebuilder + CCE SP2 [7 проходов] + Работа с меню (Adobe PhotoShop и MuxMan).
Автор релиза: J9-1000

MediaInfo

Общее
Полное имя : D:Blackhat (2015) DVD5VIDEO_TSVTS_01_1.VOB
Формат : MPEG-PS
Размер файла : 1024 Мбайт
Продолжительность : 29 м.
Режим общего битрейта : Переменный
Общий поток : 4914 Кбит/сек
Видео
Идентификатор : 224 (0xE0)
Формат : MPEG Video
Версия формата : Version 2
Профиль формата : Main@Main
Параметр BVOP формата : Да
Параметр матрицы формата : Выборочная
Параметр GOP формата : Variable
Продолжительность : 29 м.
Вид битрейта : Переменный
Битрейт : 4049 Кбит/сек
Ширина : 720 пикселей
Высота : 576 пикселей
Соотношение сторон : 16:9
Частота кадров : 25,000 кадров/сек
Стандарт вещания : PAL
Цветовое пространство : YUV
Субдискретизация насыщенности : 4:2:0
Битовая глубина : 8 бит
Метод сжатия : С потерями
Бит/(Пиксели*Кадры) : 0.390
Временной код первого кадра : 00:00:00:00
Оригинал временного кода : Group of pictures header
Размер потока : 844 Мбайт (82%)
Аудио #1
Идентификатор : 189 (0xBD)-128 (0x80)
Формат : AC-3
Формат/Информация : Audio Coding 3
Расширение режима : CM (complete main)
Параметр Endianness формата : Big
Режим смешивания : DVD-Video
Продолжительность : 29 м.
Вид битрейта : Постоянный
Битрейт : 384 Кбит/сек
Каналы : 6 каналов
Расположение каналов : Front: L C R, Side: L R, LFE
Частота : 48,0 КГц
Частота кадров : 31,250 кадров/сек (1536 spf)
Метод сжатия : С потерями
Задержка видео : -50 мс.
Размер потока : 80,0 Мбайт (8%)
Аудио #2
Идентификатор : 189 (0xBD)-132 (0x84)
Формат : AC-3
Формат/Информация : Audio Coding 3
Расширение режима : CM (complete main)
Параметр Endianness формата : Big
Режим смешивания : DVD-Video
Продолжительность : 29 м.
Вид битрейта : Постоянный
Битрейт : 384 Кбит/сек
Каналы : 6 каналов
Расположение каналов : Front: L C R, Side: L R, LFE
Частота : 48,0 КГц
Частота кадров : 31,250 кадров/сек (1536 spf)
Метод сжатия : С потерями
Задержка видео : -50 мс.
Размер потока : 80,0 Мбайт (8%)
Меню

Скриншоты


[Профиль] [ЛС]
Кто просматривает тему:

Форум Тема Автор Размер
Фантастика и фэнтези Виталий Вавикин - Электрические сны [Виталий Вавикин, 2015, Фантастика, киберпанк, 128 kbps] Garik014 632 MB
Фильмы (HD Rips | 720p, 1080p) Кибер / Blackhat (2015) BDRip 720p | iTunes достали все 6.91 GB
Фильмы (HD Rips | 720p, 1080p) Кибер / Blackhat (ДБ) (Майкл Манн) [2015 г., боевик, триллер, драма, криминал, детектив, WEB-DLRip [720p]] достали все 4.12 GB
Фильмы 2015 года Кибер / Blackhat (Майкл Манн / Michael Mann) [2015, США, Боевик, триллер, драма, криминал, детектив, BDRip-AVC] Dub + Original (Eng) + Subs (Rus., Ukr., Eng.) TorrentFilm 2.18 GB
Фильмы 2015 года Кибер / Blackhat (Майкл Манн / Michael Mann) [2015, США, боевик, триллер, драма, криминал, детектив, BDRip] Dub TorrentFilm 2.19 GB
Фильмы 2015 года Кибер / Blackhat (Майкл Манн) [2015 г., Боевик, Триллер, Криминал, WEB-DLRip-AVC] DUB | iTunes adeei 1.89 GB
Фильмы 2015 года Кибер / Blackhat (Майкл Манн) [боевик, триллер, драма, криминал, детектив 2015] HDRip | iTunes BOSS 1.37 GB
Фильмы 2015 года Кибер / Blackhat(Майкл Манн / Michael Mann) [2015, США, Боевик, триллер, драма, криминал, детектив, BDRip-AVC] Dub + Sub Rus,Eng + Original Eng TorrentFilm 4.51 GB
Показать сообщения:    

Текущее время: Сегодня 03:25

Часовой пояс: GMT



Вы не можете начинать темы
Вы не можете отвечать на сообщения
Вы не можете редактировать свои сообщения
Вы не можете удалять свои сообщения
Вы не можете голосовать в опросах
Вы не можете прикреплять файлы к сообщениям
Вы не можете скачивать файлы