Кибер / Blackhat (Майкл Манн / Michael Mann) [2015, США, боевик, триллер, драма, криминал, детектив, BDRip] Dub

 
Автор Сообщение

TorrentFilm ®

Пол:

Стаж: 2 года

Сообщений: 7741



Награды: Нет

Торрент-статистика

Создавать темы 10-Май-2015 00:04

[Цитировать]

Кибер / Blackhat

«Вы больше не можете защитить себя»
-Страна: США
Студии: Legendary Pictures, Forward Pass
Жанр: боевик, триллер, драма, криминал, детектив
Год выпуска: 2015
Продолжительность: 02:13:34
Перевод: Профессиональный (дублированный) - | iTunes |
Cубтитры: нет
Оригинальная аудиодорожка: нет-Режиссер: Майкл Манн / Michael Mann-В ролях: Крис Хемсворт, Ван Лихом, Тан Вэй, Виола Дэвис, Холт МакКэллани, Энди Он, Ричи Костер, Кристиан Борл, Джон Ортис, Йорик ван Вагенинген...-Описание: Спокойная, размеренная жизнь современного мирового пространства. Кажется, что ничто не может нарушить равномерный, плавный ход событий, жизнь настолько механизирована, все рассчитано до мельчайшей детали, что, казалось бы, что может произойти? Какое событие может выбить из колеи столь идеально отлаженную машину? Однако именно разработки в области новейших технологий представляют главную угрозу человечеству. Лучшие ученые умы из США и Китая объединяют силы в борьбе против самой мощной кибернетической атаки.- -Качество видео: BDRip | Blackhat.2015.BDRemux.1080p - kinozal |
Формат видео: AVI
Видео: 720x304, 23.976 fps, XviD build 73 ~1947 kbps avg, 0.37 bit/pixel
Аудио: 48 kHz, AC3 Dolby Digital, 3/2 (L,C,R,l,r) + LFE ch, ~384 kbps
-

Дополнительно о фильме:

Производство, студия дубляжа, прокат:

MediaInfo

General
Complete name : Blackhat.2015.BDRip.2.18gb.By_Flash.avi
Format : AVI
Format/Info : Audio Video Interleave
Format profile : OpenDML
File size : 2.19 GiB
Duration : 2h 13mn
Overall bit rate : 2 343 Kbps
Writing application : VirtualDubMod 1.5.10.3 | www.virtualdub-fr.org || (build 2550/release)
Writing library : VirtualDubMod build 2550/release
Video
ID : 0
Format : MPEG-4 Visual
Format profile : Advanced Simple@L5
Format settings, BVOP : 1
Format settings, QPel : No
Format settings, GMC : No warppoints
Format settings, Matrix : Custom
Codec ID : XVID
Codec ID/Hint : XviD
Duration : 2h 13mn
Bit rate : 1 947 Kbps
Width : 720 pixels
Height : 304 pixels
Display aspect ratio : 2.35:1
Frame rate : 23.976 fps
Color space : YUV
Chroma subsampling : 4:2:0
Bit depth : 8 bits
Scan type : Progressive
Compression mode : Lossy
Bits/(Pixel*Frame) : 0.371
Stream size : 1.82 GiB (83%)
Writing library : XviD 73
Audio
ID : 1
Format : AC-3
Format/Info : Audio Coding 3
Mode extension : CM (complete main)
Format settings, Endianness : Big
Codec ID : 2000
Duration : 2h 13mn
Bit rate mode : Constant
Bit rate : 384 Kbps
Channel(s) : 6 channels
Channel positions : Front: L C R, Side: L R, LFE
Sampling rate : 48.0 KHz
Bit depth : 16 bits
Compression mode : Lossy
Stream size : 367 MiB (16%)
Alignment : Split accross interleaves
Interleave, duration : 42 ms (1.00 video frame)
Interleave, preload duration : 500 ms

Скриншот c названием фильма

Скриншоты

[Профиль] [ЛС]
Кто просматривает тему:

Форум Тема Автор Размер
Фантастика и фэнтези Виталий Вавикин - Электрические сны [Виталий Вавикин, 2015, Фантастика, киберпанк, 128 kbps] Garik014 632 MB
Фильмы (HD Rips | 720p, 1080p) Кибер / Blackhat (2015) BDRip 720p | iTunes достали все 6.91 GB
Фильмы (DVD 5/9) Кибер / Blackhat (2015) DVD5 BOSS 4.37 GB
Фильмы (HD Rips | 720p, 1080p) Кибер / Blackhat (ДБ) (Майкл Манн) [2015 г., боевик, триллер, драма, криминал, детектив, WEB-DLRip [720p]] достали все 4.12 GB
Фильмы 2015 года Кибер / Blackhat (Майкл Манн / Michael Mann) [2015, США, Боевик, триллер, драма, криминал, детектив, BDRip-AVC] Dub + Original (Eng) + Subs (Rus., Ukr., Eng.) TorrentFilm 2.18 GB
Фильмы 2015 года Кибер / Blackhat (Майкл Манн) [2015 г., Боевик, Триллер, Криминал, WEB-DLRip-AVC] DUB | iTunes adeei 1.89 GB
Фильмы 2015 года Кибер / Blackhat (Майкл Манн) [боевик, триллер, драма, криминал, детектив 2015] HDRip | iTunes BOSS 1.37 GB
Фильмы 2015 года Кибер / Blackhat(Майкл Манн / Michael Mann) [2015, США, Боевик, триллер, драма, криминал, детектив, BDRip-AVC] Dub + Sub Rus,Eng + Original Eng TorrentFilm 4.51 GB
Показать сообщения:    

Текущее время: Сегодня 08:02

Часовой пояс: GMT



Вы не можете начинать темы
Вы не можете отвечать на сообщения
Вы не можете редактировать свои сообщения
Вы не можете удалять свои сообщения
Вы не можете голосовать в опросах
Вы не можете прикреплять файлы к сообщениям
Вы не можете скачивать файлы