Кибер / Blackhat (2015) BDRip 720p | iTunes

 
Автор Сообщение

достали все ®

Пол:

Стаж: 1 год 8 месяцев

Сообщений: 6581



Награды: 12 (Подробнее)

Mega Seeder 5 (Количество: 1) Mega Seeder 1 (Количество: 1) За внесенный вклад в развитие сайта (Количество: 1)
Торрент-статистика

Создавать темы 01-Май-2015 09:42

[Цитировать]

Информация о фильме
Название: Кибер
Оригинальное название: Blackhat
Год выхода: 2015
Жанр: боевик, триллер, драма, криминал, детектив
Режиссер: Майкл Манн
В ролях: Крис Хемсворт, Ван Лихом, Тан Вэй, Виола Дэвис, Холт МакКэллани, Энди Он, Ричи Костер, Кристиан Борл, Джон Ортис, Йорик ван Вагенинген
О фильме: Спокойная, размеренная жизнь современного мирового пространства. Кажется, что ничто не может нарушить равномерный, плавный ход событий, жизнь настолько механизирована, все рассчитано до мельчайшей детали, что, казалось бы, что может произойти? Какое событие может выбить из колеи столь идеально отлаженную машину? Однако именно разработки в области новейших технологий представляют главную угрозу человечеству. Лучшие ученые умы из США и Китая объединяют силы в борьбе против самой мощной кибернетической атаки.

Выпущено: США
Продолжительность: 02:13:34
Озвучивание: Дублированное [iTunes]
Файл
Формат: MKV (x264)
Качество: BDRip 720p
Видео: 5515 kb/s, 1280x536
Аудио: Russian: AC3, 384 kb/s (6 ch) / English: DTS, 1510 kb/s (6 ch)
Размер: 6.91 GB
Скачать: Сэмпл---

Media Info

General
Unique ID : 246539122465867847918374525338006689207 (0xB979B5352212792493DF8F2F823D95B7)
Complete name : /home9/teamkz/downloads/torrents/K1ber.2015.D.BDRp.720p.mkv
Format : Matroska
Format version : Version 2
File size : 6.91 GiB
Duration : 2h 13mn
Overall bit rate : 7 409 Kbps
Encoded date : UTC 2015-04-30 21:37:54
Writing application : mkvmerge v7.8.0 ('River Man') 64bit built on Mar 27 2015 16:31:37
Writing library : libebml v1.3.1 + libmatroska v1.4.2
DURATION : 02:13:34.048000000
NUMBER_OF_FRAMES : 250439
NUMBER_OF_BYTES : 384674304
_STATISTICS_WRITING_APP : mkvmerge v7.8.0 ('River Man') 64bit built on Mar 27 2015 16:31:37
_STATISTICS_WRITING_DATE_UTC : 2015-04-30 21:37:54
_STATISTICS_TAGS : BPS DURATION NUMBER_OF_FRAMES NUMBER_OF_BYTES
Video
ID : 1
Format : AVC
Format/Info : Advanced Video Codec
Format profile : High@L4.1
Format settings, CABAC : Yes
Format settings, ReFrames : 5 frames
Codec ID : V_MPEG4/ISO/AVC
Duration : 2h 13mn
Bit rate : 5 515 Kbps
Width : 1 280 pixels
Height : 536 pixels
Display aspect ratio : 2.40:1
Frame rate mode : Constant
Frame rate : 23.976 fps
Color space : YUV
Chroma subsampling : 4:2:0
Bit depth : 8 bits
Scan type : Progressive
Bits/(Pixel*Frame) : 0.335
Stream size : 5.01 GiB (72%)
Writing library : x264 core 144 r2525 40bb568
Encoding settings : cabac=1 / ref=5 / deblock=1:0:0 / analyse=0x3:0x133 / me=umh / subme=7 / psy=1 / psy_rd=1.00:0.00 / mixed_ref=1 / me_range=16 / chroma_me=1 / trellis=1 / 8x8dct=1 / cqm=0 / deadzone=21,11 / fast_pskip=0 / chroma_qp_offset=-2 / threads=60 / lookahead_threads=4 / sliced_threads=0 / nr=0 / decimate=1 / interlaced=0 / bluray_compat=0 / constrained_intra=0 / bframes=3 / b_pyramid=2 / b_adapt=1 / b_bias=0 / direct=1 / weightb=1 / open_gop=0 / weightp=2 / keyint=250 / keyint_min=23 / scenecut=40 / intra_refresh=0 / rc_lookahead=40 / rc=2pass / mbtree=1 / bitrate=5515 / ratetol=1.0 / qcomp=0.60 / qpmin=0 / qpmax=69 / qpstep=4 / cplxblur=20.0 / qblur=0.5 / ip_ratio=1.40 / aq=1:1.00
Language : English
Default : Yes
Forced : No
DURATION : 02:13:34.019000000
NUMBER_OF_FRAMES : 192144
NUMBER_OF_BYTES : 5522713512
_STATISTICS_WRITING_APP : mkvmerge v7.8.0 ('River Man') 64bit built on Mar 27 2015 16:31:37
_STATISTICS_WRITING_DATE_UTC : 2015-04-30 21:37:54
_STATISTICS_TAGS : BPS DURATION NUMBER_OF_FRAMES NUMBER_OF_BYTES
Audio #1
ID : 2
Format : AC-3
Format/Info : Audio Coding 3
Mode extension : CM (complete main)
Format settings, Endianness : Big
Codec ID : A_AC3
Duration : 2h 13mn
Bit rate mode : Constant
Bit rate : 384 Kbps
Channel(s) : 6 channels
Channel positions : Front: L C R, Side: L R, LFE
Sampling rate : 48.0 KHz
Bit depth : 16 bits
Compression mode : Lossy
Stream size : 367 MiB (5%)
Language : Russian
Default : Yes
Forced : No
Audio #2
ID : 3
Format : DTS
Format/Info : Digital Theater Systems
Mode : 16
Format settings, Endianness : Big
Codec ID : A_DTS
Duration : 2h 13mn
Bit rate mode : Constant
Bit rate : 1 509 Kbps
Channel(s) : 6 channels
Channel positions : Front: L C R, Side: L R, LFE
Sampling rate : 48.0 KHz
Bit depth : 24 bits
Compression mode : Lossy
Stream size : 1.41 GiB (20%)
Language : English
Default : No
Forced : No
Menu
00:00:00.000 : en:00:00:00.000
00:06:14.207 : en:00:06:14.207
00:13:43.281 : en:00:13:43.281
00:20:22.680 : en:00:20:22.680
00:28:04.933 : en:00:28:04.933
00:33:31.509 : en:00:33:31.509
00:38:03.364 : en:00:38:03.364
00:45:32.271 : en:00:45:32.271
00:55:34.998 : en:00:55:34.998
01:00:53.608 : en:01:00:53.608
01:08:17.218 : en:01:08:17.218
01:13:56.641 : en:01:13:56.641
01:21:20.626 : en:01:21:20.626
01:26:56.878 : en:01:26:56.878
01:34:12.188 : en:01:34:12.188
01:39:09.485 : en:01:39:09.485
01:44:23.007 : en:01:44:23.007
01:47:52.049 : en:01:47:52.049
01:55:05.857 : en:01:55:05.857
02:04:52.110 : en:02:04:52.110
--- --- -

Скриншоты

-
[Профиль] [ЛС]
Кто просматривает тему:

Форум Тема Автор Размер
Фантастика и фэнтези Виталий Вавикин - Электрические сны [Виталий Вавикин, 2015, Фантастика, киберпанк, 128 kbps] Garik014 632 MB
Фильмы (DVD 5/9) Кибер / Blackhat (2015) DVD5 BOSS 4.37 GB
Фильмы (HD Rips | 720p, 1080p) Кибер / Blackhat (ДБ) (Майкл Манн) [2015 г., боевик, триллер, драма, криминал, детектив, WEB-DLRip [720p]] достали все 4.12 GB
Фильмы 2015 года Кибер / Blackhat (Майкл Манн / Michael Mann) [2015, США, Боевик, триллер, драма, криминал, детектив, BDRip-AVC] Dub + Original (Eng) + Subs (Rus., Ukr., Eng.) TorrentFilm 2.18 GB
Фильмы 2015 года Кибер / Blackhat (Майкл Манн / Michael Mann) [2015, США, боевик, триллер, драма, криминал, детектив, BDRip] Dub TorrentFilm 2.19 GB
Фильмы 2015 года Кибер / Blackhat (Майкл Манн) [2015 г., Боевик, Триллер, Криминал, WEB-DLRip-AVC] DUB | iTunes adeei 1.89 GB
Фильмы 2015 года Кибер / Blackhat (Майкл Манн) [боевик, триллер, драма, криминал, детектив 2015] HDRip | iTunes BOSS 1.37 GB
Фильмы 2015 года Кибер / Blackhat(Майкл Манн / Michael Mann) [2015, США, Боевик, триллер, драма, криминал, детектив, BDRip-AVC] Dub + Sub Rus,Eng + Original Eng TorrentFilm 4.51 GB
Показать сообщения:    

Текущее время: Сегодня 16:23

Часовой пояс: GMT



Вы не можете начинать темы
Вы не можете отвечать на сообщения
Вы не можете редактировать свои сообщения
Вы не можете удалять свои сообщения
Вы не можете голосовать в опросах
Вы не можете прикреплять файлы к сообщениям
Вы не можете скачивать файлы