Кибер / Blackhat (Майкл Манн) [2015 г., Боевик, Триллер, Криминал, WEB-DLRip-AVC] DUB | iTunes

 
Автор Сообщение

adeei ®

Пол:

Стаж: 1 год 8 месяцев

Сообщений: 63

Откуда: Россия Иваново



Награды: 3 (Подробнее)

Mega Seeder 3 (Количество: 1) Mega Seeder 1 (Количество: 1) Mega Seeder 2 (Количество: 1)
Торрент-статистика

Создавать темы 26-Мар-2015 15:06

[Цитировать]

Кибер / Blackhat«Вы больше не можете защитить себя» Год выпуска:2015
Страна: США / Forward Pass, Legendary Pictures
Жанр: Боевик, триллер, драма, криминал, детектив
Продолжительность: 02:12:56
Перевод: Дублированный (iTunes)-Режиссер: Майкл Манн-В ролях: Крис Хемсворт, Ван Лихом, Тан Вэй, Виола Дэвис, Холт МакКэллани, Энди Он, Ричи Костер, Кристиан Борл, Джон Ортис, Йорик ван Вагенинген-Описание: Спокойная, размеренная жизнь современного мирового пространства. Кажется, что ничто не может нарушить равномерный, плавный ход событий, жизнь настолько механизирована, все рассчитано до мельчайшей детали, что, казалось бы, что может произойти? Какое событие может выбить из колеи столь идеально отлаженную машину? Однако именно разработки в области новейших технологий представляют главную угрозу человечеству. Лучшие ученые умы из США и Китая объединяют силы в борьбе против самой мощной кибернетической атаки.- -Качество: WEB-DLRip (AVC)
Видео: MPEG-4 AVC, 1650 Кбит/с, 1024x424
Аудио: Русский, AC3, 6 ch, 384 Кбит/с-

Скриншоты

Медио инфо

Формат : Matroska
Версия формата : Version 2
Размер файла : 1,89 Гбайт
Продолжительность : 2 ч. 12 м.
Общий поток : 2035 Кбит/сек
Название фильма : Blackhat.2015.x264.D.WEB-DLRip.(AVC)
Дата кодирования : UTC 2015-03-26 06:20:05
Программа кодирования : mkvmerge v7.7.0 ('Six Voices') 64bit built on Feb 28 2015 23:39:33
Библиотека кодирования : libebml v1.3.1 + libmatroska v1.4.2
Видео
Идентификатор : 1
Формат : AVC
Формат/Информация : Advanced Video Codec
Профиль формата : High@L4.1
Параметр CABAC формата : Да
Параметр ReFrames формата : 12 кадров
Идентификатор кодека : V_MPEG4/ISO/AVC
Продолжительность : 2 ч. 12 м.
Битрейт : 1650 Кбит/сек
Ширина : 1024 пикселя
Высота : 424 пикселя
Соотношение сторон : 2,40:1
Режим частоты кадров : Постоянный
Частота кадров : 23,976 кадра/сек
Цветовое пространство : YUV
Субдискретизация насыщенности : 4:2:0
Битовая глубина : 8 бит
Тип развёртки : Прогрессивная
Бит/(Пиксели*Кадры) : 0.159
Размер потока : 1,50 Гбайт (79%)
Заголовок : Blackhat.2015.x264.D.WEB-DLRip.(AVC).by.StarbirS
Библиотека кодирования : x264 core 144 r2525 40bb568
Настройки программы : cabac=1 / ref=12 / deblock=1:-3:-3 / analyse=0x3:0x133 / me=umh / subme=10 / psy=1 / psy_rd=1.00:0.10 / mixed_ref=1 / me_range=32 / chroma_me=1 / trellis=2 / 8x8dct=1 / cqm=0 / deadzone=21,11 / fast_pskip=0 / chroma_qp_offset=-3 / threads=12 / lookahead_threads=2 / sliced_threads=0 / nr=0 / decimate=1 / interlaced=0 / bluray_compat=0 / constrained_intra=0 / bframes=8 / b_pyramid=2 / b_adapt=2 / b_bias=0 / direct=3 / weightb=1 / open_gop=1 / weightp=2 / keyint=240 / keyint_min=23 / scenecut=40 / intra_refresh=0 / rc=2pass / mbtree=0 / bitrate=1650 / ratetol=1.0 / qcomp=0.70 / qpmin=0 / qpmax=69 / qpstep=4 / cplxblur=20.0 / qblur=0.5 / ip_ratio=1.40 / pb_ratio=1.30 / aq=1:0.90
Язык : English
Default : Да
Forced : Нет
Аудио
Идентификатор : 2
Формат : AC-3
Формат/Информация : Audio Coding 3
Расширение режима : CM (complete main)
Параметр Endianness формата : Big
Идентификатор кодека : A_AC3
Продолжительность : 2 ч. 12 м.
Вид битрейта : Постоянный
Битрейт : 384 Кбит/сек
Каналы : 6 каналов
Расположение каналов : Front: L C R, Side: L R, LFE
Частота : 48,0 КГц
Битовая глубина : 16 бит
Метод сжатия : С потерями
Размер потока : 365 Мбайт (19%)
Заголовок : Дублированный (iTunes)
Язык : Russian
Default : Да
Forced : Нет
Меню
00:00:00.000 : en:Chapter 1
00:06:16.000 : en:Chapter 2
00:13:45.000 : en:Chapter 3
00:20:24.000 : en:Chapter 4
00:27:33.000 : en:Chapter 5
00:33:00.000 : en:Chapter 6
00:37:32.000 : en:Chapter 7
00:45:01.000 : en:Chapter 8
00:55:03.000 : en:Chapter 9
01:00:20.000 : en:Chapter 10
01:07:46.000 : en:Chapter 11
01:13:25.000 : en:Chapter 12
01:20:49.000 : en:Chapter 13
01:26:25.000 : en:Chapter 14
01:33:41.000 : en:Chapter 15
01:38:38.000 : en:Chapter 16
01:43:51.000 : en:Chapter 17
01:47:21.000 : en:Chapter 18
01:54:34.000 : en:Chapter 19
02:04:17.000 : en:Chapter 20

Доп.информация

Аудио: Russian: 48 kHz, AC3, 3/2 (L,C,R,l,r) + LFE ch, ~384.00 kbps avg - Дублированный (iTunes)
x264 [info]: frame I:1317 Avg QP:14.81 size: 51757
x264 [info]: frame P:52143 Avg QP:17.38 size: 16437
x264 [info]: frame B:137768 Avg QP:19.76 size: 5220

Дата мировой премьеры: 15 января 2015
Дата российской премьеры: 29 января 2015, «UPI»
-
[Профиль] [ЛС]
Кто просматривает тему:

Форум Тема Автор Размер
Фантастика и фэнтези Виталий Вавикин - Электрические сны [Виталий Вавикин, 2015, Фантастика, киберпанк, 128 kbps] Garik014 632 MB
Фильмы (HD Rips | 720p, 1080p) Кибер / Blackhat (2015) BDRip 720p | iTunes достали все 6.91 GB
Фильмы (DVD 5/9) Кибер / Blackhat (2015) DVD5 BOSS 4.37 GB
Фильмы (HD Rips | 720p, 1080p) Кибер / Blackhat (ДБ) (Майкл Манн) [2015 г., боевик, триллер, драма, криминал, детектив, WEB-DLRip [720p]] достали все 4.12 GB
Фильмы 2015 года Кибер / Blackhat (Майкл Манн / Michael Mann) [2015, США, Боевик, триллер, драма, криминал, детектив, BDRip-AVC] Dub + Original (Eng) + Subs (Rus., Ukr., Eng.) TorrentFilm 2.18 GB
Фильмы 2015 года Кибер / Blackhat (Майкл Манн / Michael Mann) [2015, США, боевик, триллер, драма, криминал, детектив, BDRip] Dub TorrentFilm 2.19 GB
Фильмы 2015 года Кибер / Blackhat (Майкл Манн) [боевик, триллер, драма, криминал, детектив 2015] HDRip | iTunes BOSS 1.37 GB
Фильмы 2015 года Кибер / Blackhat(Майкл Манн / Michael Mann) [2015, США, Боевик, триллер, драма, криминал, детектив, BDRip-AVC] Dub + Sub Rus,Eng + Original Eng TorrentFilm 4.51 GB
Показать сообщения:    

Текущее время: Сегодня 20:45

Часовой пояс: GMT



Вы не можете начинать темы
Вы не можете отвечать на сообщения
Вы не можете редактировать свои сообщения
Вы не можете удалять свои сообщения
Вы не можете голосовать в опросах
Вы не можете прикреплять файлы к сообщениям
Вы не можете скачивать файлы