Киберзолото / TRIO: Cybergullet [s01] (2015) HDTVRip 1080p | P

 
Автор Сообщение

достали все ®

Пол:

Стаж: 1 год 8 месяцев

Сообщений: 6600



Награды: 12 (Подробнее)

Mega Seeder 2 (Количество: 1) Mega Seeder 4 (Количество: 1) Mega Seeder 1 (Количество: 1)
Торрент-статистика

Создавать темы 20-Июл-2016 15:25

[Цитировать]

Информация о фильме
Название: Киберзолото
Оригинальное название: TRIO: Cybergullet / TRIO: Cybergold
Год выхода: 2015
Жанр: приключения, семейный
Режиссер: Маргрет Бергхайм
В ролях: Наоми Хассельберг Торсруд, Оскар Линдквист, Бьёрнар Лисфосс Хагесвеен, Рейдар Сёренсен, Матс Элдоен, Камилла Аугуста Халлан, Франциска Тёрнквист, Рагнхильд Ваннебо
О фильме:
Опасный преступник решается на организованную хакерскую атаку, чтобы завладеть золотым запасом Норвегии. Но чтобы не засветиться, он решает подставить отца Ларса. Юным героям предстоит исправить это недоразумение и, по возможности, помочь остановить злодея.
Продолжение сериала Золото Одина. По российскому ТВ они показывались под общим названием Золото Одина.

Производство: Норвегия / NordicStories
Продолжительность: 10 x ~00:24:00
Перевод: профессиональный (многолосый закадровый)
Файл
Качество: HDTVRip 1080p
Формат: MKV
Видео: MPEG-4 AVC, 1920x1080 (16:9), 25.000 fps, 5000 kbps, 0.096 bit/pixel
Аудио: русский, AC3 2.0, 48 kHz, 192 kbps

MediaInfo

Формат : Matroska
Версия формата : Version 4 / Version 2
Размер файла : 876 Мбайт
Продолжительность : 23 м.
Режим общего битрейта : Постоянный
Общий поток : 5112 Кбит/сек
Дата кодирования : UTC 2016-06-24 11:44:34
Программа кодирования : mkvmerge v7.9.0 ('Birds') 64bit
Библиотека кодирования : libebml v1.3.1 + libmatroska v1.4.2
Видео
Идентификатор : 1
Формат : AVC
Формат/Информация : Advanced Video Codec
Профиль формата : High@L4.1
Параметр CABAC формата : Да
Параметр ReFrames формата : 3 кадра
Параметр GOP формата : M=3, N=25
Идентификатор кодека : V_MPEG4/ISO/AVC
Продолжительность : 23 м.
Вид битрейта : Постоянный
Битрейт : 5000 Кбит/сек
Ширина : 1920 пикселей
Высота : 1080 пикселей
Соотношение сторон : 16:9
Режим частоты кадров : Постоянный
Частота кадров : 25,000 кадров/сек
Стандарт вещания : PAL
Цветовое пространство : YUV
Субдискретизация насыщенности : 4:2:0
Битовая глубина : 8 бит
Тип развёртки : Прогрессивная
Бит/(Пиксели*Кадры) : 0.096
Размер потока : 825 Мбайт (94%)
Язык : English
Default : Да
Forced : Нет
Цветовой диапазон : Limited
Основные цвета : BT.709
Характеристики трансфера : BT.709
Коэффициенты матрицы : BT.709
Аудио
Идентификатор : 2
Формат : AC-3
Формат/Информация : Audio Coding 3
Расширение режима : CM (complete main)
Параметр Endianness формата : Big
Идентификатор кодека : A_AC3
Продолжительность : 23 м.
Вид битрейта : Постоянный
Битрейт : 192 Кбит/сек
Каналы : 2 канала
Расположение каналов : Front: L R
Частота : 48,0 КГц
Метод сжатия : С потерями
Размер потока : 32,9 Мбайт (4%)
Язык : Russian
Default : Да
Forced : Нет
[Профиль] [ЛС]
Кто просматривает тему:

Форум Тема Автор Размер
Фантастика и фэнтези Виталий Вавикин - Электрические сны [Виталий Вавикин, 2015, Фантастика, киберпанк, 128 kbps] Garik014 632 MB
Фильмы (HD Rips | 720p, 1080p) Кибер / Blackhat (2015) BDRip 720p | iTunes достали все 6.91 GB
Фильмы (DVD 5/9) Кибер / Blackhat (2015) DVD5 BOSS 4.37 GB
Фильмы (HD Rips | 720p, 1080p) Кибер / Blackhat (ДБ) (Майкл Манн) [2015 г., боевик, триллер, драма, криминал, детектив, WEB-DLRip [720p]] достали все 4.12 GB
Фильмы 2015 года Кибер / Blackhat (Майкл Манн / Michael Mann) [2015, США, Боевик, триллер, драма, криминал, детектив, BDRip-AVC] Dub + Original (Eng) + Subs (Rus., Ukr., Eng.) TorrentFilm 2.18 GB
Фильмы 2015 года Кибер / Blackhat (Майкл Манн / Michael Mann) [2015, США, боевик, триллер, драма, криминал, детектив, BDRip] Dub TorrentFilm 2.19 GB
Фильмы 2015 года Кибер / Blackhat (Майкл Манн) [2015 г., Боевик, Триллер, Криминал, WEB-DLRip-AVC] DUB | iTunes adeei 1.89 GB
Фильмы 2015 года Кибер / Blackhat (Майкл Манн) [боевик, триллер, драма, криминал, детектив 2015] HDRip | iTunes BOSS 1.37 GB
Показать сообщения:    

Текущее время: Сегодня 01:28

Часовой пояс: GMT



Вы не можете начинать темы
Вы не можете отвечать на сообщения
Вы не можете редактировать свои сообщения
Вы не можете удалять свои сообщения
Вы не можете голосовать в опросах
Вы не можете прикреплять файлы к сообщениям
Вы не можете скачивать файлы