Кето и Котэ (1948) DVDRip

 
Автор Сообщение

BOSS ®

Пол:

Стаж: 2 года 1 месяц

Сообщений: 3712

Откуда: ODESSA



Награды: 20 (Подробнее)

Mega Releaser 3 (Количество: 1) Top Seeder 4 (Количество: 1) Top Seeder 3 (Количество: 1)
Торрент-статистика

Создавать темы 29-Авг-2015 08:34

[Цитировать]

Страна: СССР
Производство: Тбилисская киностудия
Жанр: мелодрама, комедия, музыка
Год выпуска: 1948
Продолжительность: 01:24:56
Перевод: Не требуется
Cубтитры: нет
Оригинальная аудиодорожка: русский
Режиссер: Вахтанг Таблиашвили, Шалва Гедеванишвили
В ролях:
Медея Джапаридзе, Бату Кравеишвили, Петре Амиранишвили, Шалва Гамбашидзе, Тамара Чавчавадзе, Мери Давиташвили, Васо Годзиашвили, Георгий Шавгулидзе, Елизавета Черкезишвили, Тамара Цицишвили, Александр Жоржолиани, Акакий Кванталиани, Верико Анджапаридзе, Сесилия Такаишвили, Цецилия Цуцунава, Зура Лежава, Георгий Геловани...
Полный список актёров
Описание:
По мотивам классической грузинской пьесы Авксентия Цагарели "Ханума". Богатый тифлисский купец мечтает породниться с аристократией и собирается для этого выдать свою дочь за старого разорившегося князя. Девушка в отчаянии - она любит молодого поэта, племянника князя. С помощью друзей и свахи Ханумы молодым влюбленным удается перехитрить стариков и добиться своего счастья...- -Источник: DVD5 R5
Качество видео: DVDRip
Формат видео: AVI
Видео: 688x512 (4:3), 25 fps, XviD ~ 1635 kbps avg, 0.186 bit/pixel
Аудио: 48 kHz, Dolby Digital AC3 2.0, 192 kbps

MediaInfo

Общее
Полное имя : E:Tracker2015Кето и КотэKeto.i.Kote.1948.DVDRip_[New-team]_by_AVP_Studio.avi
Формат : AVI
Формат/Информация : Audio Video Interleave
Размер файла : 1,09 Гбайт
Продолжительность : 1 ч. 24 м.
Общий поток : 1837 Кбит/сек
Программа кодирования : VirtualDubMod 1.5.10.3 | www.virtualdub-fr.org || (build 2550/release)
Библиотека кодирования : VirtualDubMod build 2550/release
Видео
Идентификатор : 0
Формат : MPEG-4 Visual
Профиль формата : Advanced Simple@L5
Параметр BVOP формата : 1
Параметр QPel формата : Нет
Параметр GMC формата : Без точки перехода
Параметр матрицы формата : Выборочная
Идентификатор кодека : XVID
Идентификатор кодека/Подсказка : XviD
Продолжительность : 1 ч. 24 м.
Битрейт : 1635 Кбит/сек
Ширина : 688 пикселей
Высота : 512 пикселей
Соотношение сторон : 4:3
Частота кадров : 25,000 кадров/сек
Цветовое пространство : YUV
Субдискретизация насыщенности : 4:2:0
Битовая глубина : 8 бит
Тип развёртки : Прогрессивная
Метод сжатия : С потерями
Бит/(Пиксели*Кадры) : 0.186
Размер потока : 993 Мбайт (89%)
Библиотека кодирования : XviD 73
Аудио
Идентификатор : 1
Формат : AC-3
Формат/Информация : Audio Coding 3
Расширение режима : CM (complete main)
Параметр Endianness формата : Big
Идентификатор кодека : 2000
Продолжительность : 1 ч. 24 м.
Вид битрейта : Постоянный
Битрейт : 192 Кбит/сек
Каналы : 2 канала
Расположение каналов : Front: L R
Частота : 48,0 КГц
Метод сжатия : С потерями
Размер потока : 117 Мбайт (10%)
Выравнивание : Разделение по промежуткам
Продолжительность промежутка : 40 мс. (1,00 видеокадр)
Время предзагрузки промежутка : 500 мс

Скриншоты

[Профиль] [ЛС]
Кто просматривает тему:

Показать сообщения:    

Текущее время: Сегодня 05:00

Часовой пояс: GMT



Вы не можете начинать темы
Вы не можете отвечать на сообщения
Вы не можете редактировать свои сообщения
Вы не можете удалять свои сообщения
Вы не можете голосовать в опросах
Вы не можете прикреплять файлы к сообщениям
Вы не можете скачивать файлы