Келинка Сабина (2014) DVDRip

 
Автор Сообщение

достали все ®

Пол:

Стаж: 1 год 8 месяцев

Сообщений: 6517



Награды: 12 (Подробнее)

Mega Seeder 3 (Количество: 1) Top Releaser 2 (Количество: 1) Mega Seeder 2 (Количество: 1)
Торрент-статистика

Создавать темы 09-Май-2015 12:42

[Цитировать]

-Келинка Сабина (2014) DVDRip- Производство: Казахстан, Nurtas production
Жанр: Комедия
Режиссер: Нуртас Адамбаев
Актеры: Нуртас Адамбаев, Айнур Ильясова, Ерлан Касымжанулы, Жан Избасар, Есжан Хамидуллин, Токжан Таханова, Алишер Орикбаев
Описание:
Сабина — алматинская избалованная дочь богатых родителей. Вся ее жизнь — это ночные тусовки и европейские бренды. Давняя мечта девушки — выйти замуж за арабского шейха и уехать из Казахстана в Дубаи, чтобы жить на Jumeirah Beach. Но однажды жизнь Сабины резко меняется. И она попадает в аульский плен в поселок Жугеры. Так красавица Сабина становится женой пастуха Жанибека и казахской келин. Отныне ее новая мечта — сбежать из аульного плена.

Продолжительность: 01:39:42
Качество видео: DVDRip
Перевод: на казахскую речь вшиты русские субтитры
Язык: русский, казахский
Видеокодек: Xvid
Битрейт видео: ~1885 kbps
Размер кадра: 720x352
Аудиокодек: MP3, 2 channels
Битрейт аудио: 192 kbps

Mediainfo:

General
Complete name                            : Келинка Сабина.avi
Format                                   : AVI
Format/Info                              : Audio Video Interleave
File size                                : 1.45 GiB
Duration                                 : 1h 39mn
Overall bit rate                         : 2 084 Kbps
Video
ID                                       : 0
Format                                   : MPEG-4 Visual
Format profile                           : Advanced Simple@L5
Format settings, BVOP                    : No
Format settings, QPel                    : No
Format settings, GMC                     : No warppoints
Format settings, Matrix                  : Default (H.263)
Codec ID                                 : XVID
Codec ID/Hint                            : XviD
Duration                                 : 1h 39mn
Bit rate                                 : 1 885 Kbps
Width                                    : 720 pixels
Height                                   : 352 pixels
Display aspect ratio                     : 2.045
Frame rate                               : 25.000 fps
Color space                              : YUV
Chroma subsampling                       : 4:2:0
Bit depth                                : 8 bits
Scan type                                : Progressive
Compression mode                         : Lossy
Bits/(Pixel*Frame)                       : 0.297
Stream size                              : 1.31 GiB (90%)
Writing library                          : XviD 62
Audio
ID                                       : 1
Format                                   : MPEG Audio
Format version                           : Version 1
Format profile                           : Layer 3
Codec ID                                 : 55
Codec ID/Hint                            : MP3
Duration                                 : 1h 39mn
Bit rate mode                            : Constant
Bit rate                                 : 192 Kbps
Channel(s)                               : 2 channels
Sampling rate                            : 44.1 KHz
Compression mode                         : Lossy
Stream size                              : 137 MiB (9%)
Alignment                                : Split accross interleaves
Interleave, duration                     : 80 ms (2.00 video frames)
Writing library                          : LAMELAME_MAJOR_VERSI
Скриншоты:
[Профиль] [ЛС]
Кто просматривает тему:

Форум Тема Автор Размер
Фильмы 2016 года Келинка Сабина 2 (2016) SATRip BOSS 1.18 GB
Показать сообщения:    

Текущее время: Сегодня 07:02

Часовой пояс: GMT



Вы не можете начинать темы
Вы не можете отвечать на сообщения
Вы не можете редактировать свои сообщения
Вы не можете удалять свои сообщения
Вы не можете голосовать в опросах
Вы не можете прикреплять файлы к сообщениям
Вы не можете скачивать файлы