КВН-2014. Высшая лига (2014.11.23) HDTVRip [Обновляемая]

 
Автор Сообщение

sergej644 ®

Пол:

Стаж: 4 года 11 месяцев

Сообщений: 6043

Откуда: Soviet Union



Награды: Нет

Торрент-статистика

Создавать темы 23-Ноя-2014 15:53

[Цитировать]

- КВН-2014. Высшая лига (2014) HDTVRip -Режиссер / Телекомпания: Первый канал
Русское название: КВН
Год выпуска: 2014
Жанр: Юмор
Ведущий: Александр Масляков.
Жюри: Алексей Чумаков, Валдис Пельш, Леонид Якубович, Михаил Галустян, Юлий Гусман и др.
Описание:
Что такое КВН, знают, без сомнения, все. В КВН играют во всем мире, это прежде всего молодежная игра. Постоянные конкурсные задания: "Визитная карточка", "Разминка", "Конкурс капитанов", "Музыкальный конкурс", "Домашнее задание". Игру команд оценивает профессиональное жюри — люди, у которых с чувством юмора все в порядке, многие из них раньше сами играли в КВН. Среди членов жюри были Константин Эрнст, Леонид Парфенов, Юлий Гусман, Леонид Ярмольник, Валдис Пельш, Сергей Шолохов, Геннадий Хазанов и другие. Кроме самих игр проводятся ежегодные встречи: фестиваль команд КВН (с 1990 г., семь раз фестиваль проходил в г.Сочи), музыкальный фестиваль КВН, летний кубок КВН, международные товарищеские игры в КВН. Сборная КВН играет со сборными других стран. Уже состоялись игры между сборной КВН и сборными Америки, Австралии, Израиля... Игра в КВН для многих становится профессией, а многие благодаря игре связывают жизнь с искусством. Из КВН "вышли": Леонид Якубович, Михаил Марфин, Татьяна Лазарева, Олег Филимонов, Юлий Гусман и многие другие.
Продолжительность: Каждая игра х 02:00:00
Видеокодек: XviD
Битрейт видео: ~1700 kb/s
Размер кадра: 720 x 400
Качество видео: HDTVRip
Аудиокодек: MP3, 2ch.
Битрейт аудио: 128 kb/s

Команды:

КВН-2014. Высшая лига. 1.8 финала. Игра 1 (2014.03.02)
Одесские мансы: Одесса
Союз: Тюменская область
С.У.Р.А.: Пенза
Сборная города Мурманска: Мурманск
Шизгара: Воскресенское
КВН-2014. Высшая лига. 1.8 финала. Игра 2 (2014.03.23)
"Рижские готы", Рига
"КемБридж" (сборная КемТИПП), Кемерово
"Азия Mix", Бишкек
"Саратов", Саратов
Сборная Дагестана, Махачкала
КВН-2014. Высшая лига. 1.8 финала. Игра 3 (2014.03.30)
Сборная Физтеха, Долгопрудный
Сборная Чеченской Республики, Грозный
"Молодость", Красноярск
"Лас-Вегас", Энгельс
"Северное слияние", Томск-Салехард
КВН-2014. Высшая лига. 1.8 финала. Игра 4 (2014.04.13)
"Плохая компания", сборная Красноярского края
Сборная МФЮА, Москва-Волгоград
"Спарта", Астана
Сборная РУДН, Москва
"Детективное агентство "Лунный свет"", Белгород
КВН-2014. Высшая лига. 1.4 финала. Игра 1 (2014.04.20)
"Азия MIX", Бишкек
Сборная города Мурманска
"Саратов", Саратов
"Союз", Тюменская область
"Молодость", Красноярск
КВН-2014. Высшая лига. 1.4 финала. Игра 2 (2014.06.01)
"С.У.Р.А", ПГУАС, Пенза
Сборная Дагестана, Махачкала
"КемБридж" (сборная КемТИПП), Кемерово
"Плохая компания", сборная Красноярского края
"Детективное агентство “Лунный свет”", Белгород
КВН-2014. Высшая лига. 1.4 финала. Игра 3 (2014.06.08)
"Одесские мансы", Одесса
Сборная Чеченской Республики, Грозный
Сборная Физтеха, Долгопрудный
Сборная РУДН, Москва
Сборная МФЮА, Москва-Волгоград
КВН-2014. Высшая лига. Летний кубок в Сочи (2014.09.14)
ГородЪ ПятигорскЪ, сборная Ставропольского края
Триод и Диод, Смоленск
Парапапарам, МГИМО, Москва
Сборная Камызякского края по КВНу, Астраханская область
КВН-2014. Высшая лига. 1.2 финала. Игра 1 (2014.10.05)
КемБридж (сборная КемТИПП), Кемерово
Сборная РУДН, Москва
Сборная Чеченской Республики, Грозный
Сборная города Мурманска
КВН-2014. Высшая лига. 1.2 финала. Игра 2 (2014.10.26)
"Союз" Тюменская область
"Детективное агентство "Лунный свет"", Белгород
Сборная Физтеха, Долгопрудный
"Саратов", Саратов
"Плохая компания", сборная Красноярского края
КВН-2014. Высшая лига. Голосящий КиВиН в Юрмале (2014.11.04)
Сборная Баку (Азербайджан)
Сборная банкетных ведущих (Республика Татарстан)
Сборная Грузии (Тбилиси)
Сборная города Мурманска
"Одесские мансы" (Одесса)
Сборная Дагестана (Махачкала)
"КемБридж" (сборная КеМТИПП) (Кемерово)
"Азия MIX" (Бишкек)
"Плохая компания" (сборная Красноярского края)
"Кефир" (Нягань)
"Днепр" (Сборная Днепропетровской области)
"Триод и Диод" (Смоленск)
"Уездный город" (Челябинск-Магнитогорск)
"ГородЪ ПятигорскЪ" (Ставропольский край)
КВН-2014. Высшая лига. Кубок мэра Москвы (2014.11.23)
Сборная РУДН, Москва
"Плохая компания", сборная Красноярского края
Сборная Физтеха, Долгопрудный
"КемБридж" (сборная КемТИПП), Кемерово
"Саратов", Саратов
Сборная МФЮА, Москва-Волгоград

MediaInfo

Формат : AVI
Формат/Информация : Audio Video Interleave
Размер файла : 1,47 Гбайт
Продолжительность : 1 ч. 55 м.
Общий поток : 1834 Кбит/сек
Программа кодирования : VirtualDubMod 1.5.10.3 | www.virtualdub-fr.org || (build 2550/release)
Библиотека кодирования : VirtualDub build 35491/release
Видео
Идентификатор : 0
Формат : MPEG-4 Visual
Профиль формата : Advanced Simple@L5
Параметр BVOP формата : 2
Параметр QPel формата : Нет
Параметр GMC формата : Без точки перехода
Параметр матрицы формата : Default (H.263)
Идентификатор кодека : XVID
Идентификатор кодека/Подсказка : XviD
Продолжительность : 1 ч. 55 м.
Битрейт : 1697 Кбит/сек
Ширина : 720 пикселей
Высота : 400 пикселей
Соотношение сторон : 16:9
Частота кадров : 25,000 кадров/сек
Цветовое пространство : YUV
Субдискретизация насыщенности : 4:2:0
Битовая глубина : 8 бит
Тип развёртки : Прогрессивная
Метод сжатия : С потерями
Бит/(Пиксели*Кадры) : 0.236
Размер потока : 1,36 Гбайт (92%)
Библиотека кодирования : XviD 1.2.1 (UTC 2008-12-04)
Аудио
Идентификатор : 1
Формат : MPEG Audio
Версия формата : Version 1
Профиль формата : Layer 3
Режим : Joint stereo
Идентификатор кодека : 55
Идентификатор кодека/Подсказка : MP3
Продолжительность : 1 ч. 55 м.
Вид битрейта : Постоянный
Битрейт : 128 Кбит/сек
Каналы : 2 канала
Частота : 48,0 КГц
Метод сжатия : С потерями
Размер потока : 105 Мбайт (7%)
Выравнивание : Соединение по промежуткам
Продолжительность промежутка : 40 мс. (1,00 видеокадр)
Время предзагрузки промежутка : 504 мс.
Библиотека кодирования : LAME3.99r
Настройки программы : -m j -V 4 -q 2 -lowpass 17 -b 128
Скриншоты: Время раздачи: 24/7. До первых 5 скачавших.
Rip by olegka7373--
[Профиль] [ЛС]
Показать сообщения:    

Текущее время: Сегодня 00:33

Часовой пояс: GMT



Вы не можете начинать темы
Вы не можете отвечать на сообщения
Вы не можете редактировать свои сообщения
Вы не можете удалять свои сообщения
Вы не можете голосовать в опросах
Вы не можете прикреплять файлы к сообщениям
Вы не можете скачивать файлы