Квартал (Олег Ларин) [2011, Россия, драма, криминал, DVD5] R5 Sub Ukr + Original Rus

 
Автор Сообщение

TorrentFilm ®

Пол:

Стаж: 2 года

Сообщений: 7741



Награды: Нет

Торрент-статистика

Создавать темы 01-Янв-2016 00:10

[Цитировать]

-Квартал -Страна: Россия
Студия: Триикс Медиа
Жанр: драма, криминал
Год выпуска: 2011
Российская премьера: 19 ноября 2011
Дата выхода DVD: 23 августа 2012, «Монолит»
Продолжительность: 01:31:20
Перевод: Оригинал [Лицензия]
Cубтитры: украинские
Оригинальная аудиодорожка: русский-Режиссер: Олег Ларин-В ролях: Наталья Бочкарёва, Геннадий Венгеров, Константин Соловьев, Юрий Архангельский, Анна Королева, Марина Кузнецова, Евгений Гусев, Евгений Гончаренко, Андрей Мишин, Геннадий Свирь-Описание: Борис Неволин — успешный предприниматель. У него своя фирма, красавица-жена, хороший сын.
Он живет в престижном районе Санкт-Петербурга, у него свой дом за городом, его сопровождают телохранители, ему открыты двери высоких кабинетов, на заграничных счетах имеется заначка на черный день+ И вот он наступил. Партнер по бизнесу подставил его, Борис потерял фирму и весь бизнес, а чтобы рассчитаться с долгами ему пришлось продать и дом и квартиру. Хорошо, что еще уголовное дело на него не завели — откупился, как раз деньгами с заграничного счета.
Таким образом Неволин и его семья вынуждены переехать в один из самых бедных районов Санкт-Петербурга.
Теперь они живут в малогабаритной квартире. Денег у семьи нет, и они вынуждены находить работу, устраивать сына в обычную школу, а бывшие влиятельные друзья от него просто отвернулись.
С удивлением Неволин понимает, что мир вокруг него — совсем не такой, какой он привык видеть за окном иномарки. В этом мире людям не хватает денег до зарплаты, в этом мире открыто продают наркотики и занимаются проституцией, грабят и убивают, а телохранителей, которые раньше решали эти проблемы уже нет рядом. И Неволин начинает выживать в одиночку.
-Бонусы: Смотрите на DVD- -Качество: DVD5 R5
Формат: DVD-Video
Видео кодек: MPEG2
Аудио кодек: AC3
Видео: PAL 4:3 (720x576(0.569)) MPEG Video, 25,000 кадр/сек, 5894 Кбит/сек
Аудио: Russian (Dolby AC3, 2 ch) 160 Кбит/сек, 48,0 КГц--

DVDInfo

Title: Kvartal.2011.DVD5
Size: 4.32 Gb ( 4 525 948,00 KBytes ) - DVD-5
Enabled regions: 1, 2, 3, 4, 5, 6, 7, 8
VTS_01 :
Play Length: 01:31:20
Video: PAL 4:3 (720x576) VBR
Audio:
Russian (Dolby AC3, 2 ch)
Subtitles:
Ukrainian
VTS_02 :
Play Length: 00:00:14+00:00:09+00:01:59+00:01:54+00:02:11
Video: PAL 16:9 (720x576) VBR, Auto Letterboxed
Audio:
Russian (Dolby AC3, 2 ch)
* Menus Information *
VIDEO_TS Menu
Video:
PAL 4:3 (720x576) VBR
Audio:
Not specified (Dolby AC3, 2 ch)
English Language Unit :
Title Menu
VTS_01 Menu
Video:
PAL 4:3 (720x576) VBR
Audio:
Not specified (Dolby AC3, 2 ch)
English Language Unit :
Root Menu
VTS_02 Menu
Video:
NTSC 4:3 (720x480) VBR
Auto Pan&Scan, Auto Letterboxed
English Language Unit :
Root Menu

MediaInfo

Общее
Полное имя : J:\Новинки 2012\Kvartal.2011.DVD5\VIDEO_TS\VTS_01_2.VOB
Формат : MPEG-PS
Размер файла : 1024 Мбайт
Продолжительность : 23 м.
Режим общего битрейта : Переменный
Общий поток : 6177 Кбит/сек
Видео
Идентификатор : 224 (0xE0)
Формат : MPEG Video
Версия формата : Version 2
Профиль формата : Main@Main
Параметр BVOP формата : Да
Параметр матрицы формата : Выборочная
Параметр GOP формата : M=3, N=13
Продолжительность : 23 м.
Вид битрейта : Переменный
Битрейт : 5894 Кбит/сек
Максимальный битрейт : 9200 Кбит/сек
Ширина : 720 пикселей
Высота : 576 пикселей
Соотношение сторон : 4:3
Частота кадров : 25,000 кадров/сек
Стандарт вещания : PAL
Цветовое пространство : YUV
Субдискретизация насыщенности : 4:2:0
Битовая глубина : 8 бит
Тип развёртки : Прогрессивная
Метод сжатия : С потерями
Бит/(Пиксели*Кадры) : 0.569
Размер потока : 977 Мбайт (95%)
Основные цвета : BT.601 PAL
Характеристики трансфера : BT.470 System B, BT.470 System G
Коэффициенты матрицы : BT.601
Аудио
Идентификатор : 189 (0xBD)-128 (0x80)
Формат : AC-3
Формат/Информация : Audio Coding 3
Расширение режима : CM (complete main)
Параметр Endianness формата : Big
Режим смешивания : DVD-Video
Продолжительность : 23 м.
Вид битрейта : Постоянный
Битрейт : 160 Кбит/сек
Каналы : 2 канала
Расположение каналов : Front: L R
Частота : 48,0 КГц
Битовая глубина : 16 бит
Метод сжатия : С потерями
Задержка видео : -128 мс.
Размер потока : 26,5 Мбайт (3%)
Текст
Идентификатор : 189 (0xBD)-32 (0x20)
Формат : RLE
Формат/Информация : Run-length encoding
Режим смешивания : DVD-Video
Задержка видео : 320 мс.

Скриншоты меню

Скриншоты фильма


-
-Раздача от группы:
[Профиль] [ЛС]
Показать сообщения:    

Текущее время: Сегодня 16:22

Часовой пояс: GMT



Вы не можете начинать темы
Вы не можете отвечать на сообщения
Вы не можете редактировать свои сообщения
Вы не можете удалять свои сообщения
Вы не можете голосовать в опросах
Вы не можете прикреплять файлы к сообщениям
Вы не можете скачивать файлы