Квадрат / Игра по честному / The Square (2008) BDRip 720p | L2

 
Автор Сообщение

Russian Mafia ®

Пол:

Стаж: 1 год 8 месяцев

Сообщений: 4260



Награды: 10 (Подробнее)

Top Releaser 2 (Количество: 1) За внесенный вклад в развитие сайта (Количество: 1) Mega Seeder 2 (Количество: 1)
Торрент-статистика

Создавать темы 16-Сен-2015 07:55

[Цитировать]

Информация о фильме
Название: Игра по честному / Квадрат
Оригинальное название: The Square
Год выхода: 2008
Жанр: Триллер, драма
Режиссер: Нэш Эдгертон
В ролях: Лиза Бэйли, Люси Белл, Пол Цезар, Аманда Кромптон, Мари Д`Арси, Киран Дарси-Смит, Брендан Донохью, Джоэл Эдгертон
О фильме:
Что делать, когда уходит любовь и начинается «бытовуха»? Пытаясь вырваться из болота семейных отношений, в которых уже давно угасли чувства, Рэймонд знакомится со сногшибательной красоткой Карлой, которая, в добавок ко всему, является женой гангстера. В один прекрасный момент, Карла предлагает своему любовнику стащить у своего благоверного весь куш с последнего «дельца», и вчерашний добропорядочный семьянин Рэймонд с радостью соглашается. Тем более дело выглядит плевым, всего-то нужно: забрать все деньги и смыться. Но если бы все было так просто..

Страна: Австралия
Студия: Australian Film Finance Corporation
Продолжительность: 01:46:00
Перевод: Любительский, двухголосый - interfilm
Файл
Кодек: h.264
Качество: BDRip 720p
Видео: MPEG-4 AVC, 4098 Кбит/сек, 1280x544
Звук:
Русский (AC3, 6 ch, 448 Кбит/с)
Английский (DTS, 6 ch, 1510 Кбит/с)
Субтитры: Английские

Скриншоты

Mediainfo

Общее
Уникальный идентификатор : 253343651674125063253934708602775767672 (0xBE983666442FA51FBFC0F40D01278A78)
Полное имя : D:TempKvadrat.2008.x264.BDRip.[720p]_(1- HD.TV).mkv
Формат : Matroska
Версия формата : Version 2
Размер файла : 4,48 Гбайт
Продолжительность : 1 ч. 46 м.
Общий поток : 6057 Кбит/сек
Название фильма : Kvadrat.2008.x264.BDRip.[720p]_(1- HD.TV)
Дата кодирования : UTC 2012-07-13 06:53:58
Программа кодирования : mkvmerge v3.3.0 ('Language') built on Mar 24 2010 14:59:24
Библиотека кодирования : libebml v0.8.0 + libmatroska v0.9.0
Видео
Идентификатор : 1
Формат : AVC
Формат/Информация : Advanced Video Codec
Профиль формата : High@L4.1
Параметр CABAC формата : Да
Параметр ReFrames формата : 5 кадров
Идентификатор кодека : V_MPEG4/ISO/AVC
Продолжительность : 1 ч. 46 м.
Битрейт : 4098 Кбит/сек
Ширина : 1280 пикселей
Высота : 544 пикселя
Соотношение сторон : 2,35:1
Частота кадров : 23,976 кадра/сек
Цветовое пространство : YUV
Субдискретизация насыщенности : 4:2:0
Битовая глубина : 8 бит
Тип развёртки : Прогрессивная
Бит/(Пиксели*Кадры) : 0.245
Размер потока : 2,95 Гбайт (66%)
Заголовок : Kvadrat.2008.x264.BDRip.[720p]_(1- HD.TV)
Библиотека кодирования : x264 core 92 r1510 33d382a
Настройки программы : cabac=1 / ref=5 / deblock=1:-3:-3 / analyse=0x3:0x133 / me=umh / subme=7 / psy=1 / psy_rd=1.00:0.00 / mixed_ref=1 / me_range=32 / chroma_me=1 / trellis=2 / 8x8dct=1 / cqm=0 / deadzone=21,11 / fast_pskip=0 / chroma_qp_offset=-2 / threads=6 / sliced_threads=0 / nr=0 / decimate=1 / interlaced=0 / constrained_intra=0 / bframes=3 / b_pyramid=2 / b_adapt=2 / b_bias=0 / direct=3 / wpredb=1 / wpredp=2 / keyint=250 / keyint_min=25 / scenecut=40 / intra_refresh=0 / rc_lookahead=50 / rc=2pass / mbtree=1 / bitrate=4098 / ratetol=1.0 / qcomp=0.60 / qpmin=10 / qpmax=51 / qpstep=4 / cplxblur=20.0 / qblur=0.5 / ip_ratio=1.40 / aq=1:1.00
Язык : English
Default : Нет
Forced : Нет
Аудио #1
Идентификатор : 2
Формат : AC-3
Формат/Информация : Audio Coding 3
Расширение режима : CM (complete main)
Параметр Endianness формата : Big
Идентификатор кодека : A_AC3
Продолжительность : 1 ч. 46 м.
Вид битрейта : Постоянный
Битрейт : 448 Кбит/сек
Каналы : 6 каналов
Расположение каналов : Front: L C R, Side: L R, LFE
Частота : 48,0 КГц
Битовая глубина : 16 бит
Метод сжатия : С потерями
Размер потока : 340 Мбайт (7%)
Заголовок : interfilm
Язык : Russian
Default : Нет
Forced : Нет
Аудио #2
Идентификатор : 3
Формат : DTS
Формат/Информация : Digital Theater Systems
Идентификатор кодека : A_DTS
Продолжительность : 1 ч. 46 м.
Вид битрейта : Постоянный
Битрейт : 1510 Кбит/сек
Каналы : 6 каналов
Расположение каналов : Front: L C R, Side: L R, LFE
Частота : 48,0 КГц
Битовая глубина : 24 бит
Метод сжатия : С потерями
Размер потока : 1,12 Гбайт (25%)
Язык : English
Default : Нет
Forced : Нет
Текст
Идентификатор : 4
Формат : UTF-8
Идентификатор кодека : S_TEXT/UTF8
Идентификатор кодека/Информация : UTF-8 Plain Text
Язык : English
Default : Нет
Forced : Нет
Меню
00:00:00.000 : :Chapter 01
00:06:18.878 : :Chapter 02
00:11:31.649 : :Chapter 03
00:20:08.123 : :Chapter 04
00:23:10.138 : :Chapter 05
00:28:20.490 : :Chapter 06
00:37:39.757 : :Chapter 07
00:41:05.212 : :Chapter 08
00:48:40.626 : :Chapter 09
00:55:06.803 : :Chapter 10
00:59:01.246 : :Chapter 11
01:05:43.314 : :Chapter 12
01:10:47.618 : :Chapter 13
01:18:06.682 : :Chapter 14
01:25:10.897 : :Chapter 15
01:31:02.582 : :Chapter 16
[Профиль] [ЛС]
Кто просматривает тему:

Форум Тема Автор Размер
Фильмы 2011 года 13 квадратных метров / 13m2 (Бартелеми Гроссманн / Barthelemy Grossmann) [2007, Франция, криминальная драма, триллер, DVB -> DVD] Original (Fre) + Sub (Rus, Eng, Fre, Deu) TorrentFilm 1.95 GB
Action Saints Row - Квадрология [RePack] [RUS / ENG] (2008-2015) TorrentFilm 19.58 GB
Программы [Офис] QuadCalc+ / Калькулятор Квадратных Уравнений [Android 2.3, RUS + ENG] TorrentFilm 2 MB
Отечественные мультфильмы Айнудизм (аменция с аутизмом в квадрате) (Сергей Айнутдинов) [1994, Рисованный мультфильм, SATRip] TorrentFilm 279 MB
Фильмы (HD Rips | 720p, 1080p) Американский ниндзя: Квадрология / American Ninja: Quadrilogy (1985-1990) BDRip 720p Russian Mafia 10.73 GB
Сборники и Сиквелы (48-60 fps) Астерикс и Обеликс: Квадрология / Asterix and Obelix: Quadrilogy (1999-2012) BDRip-AVC от R.G. HD-Films | 60 fps BOSS 15.45 GB
Сборники и Сиквелы (48-60 fps) Джейсон Борн: Квадрология / Jason Bourne: Quadrilogy (2002-2012) BDRip 1080p | 60 fps sergej644 42.49 GB
Сборники и Сиквелы (48-60 fps) Джейсон Борн: Квадрология / Jason Bourne: Quadrilogy (2002-2012) BDRip 720p | 60 fps sergej644 27.44 GB
Показать сообщения:    

Текущее время: Сегодня 14:08

Часовой пояс: GMT



Вы не можете начинать темы
Вы не можете отвечать на сообщения
Вы не можете редактировать свои сообщения
Вы не можете удалять свои сообщения
Вы не можете голосовать в опросах
Вы не можете прикреплять файлы к сообщениям
Вы не можете скачивать файлы