Качели / Hustawka (Томаш Левкович / Tomasz Lewkowicz) [2010, Польша, драма, DVDRip] VO (PashaUp)

 
Автор Сообщение

painkiller ®

Стаж: 2 года 3 месяца

Сообщений: 582



Награды: Нет

Торрент-статистика

Создавать темы 15-Авг-2014 01:06

[Цитировать]

Качели / Hustawka
Страна: Польша
Жанр: драма
Год выпуска: 2010
Продолжительность: 01:34:17
Перевод: Одноголосый закадровый PashaUp
Cубтитры: нет
Режиссер: Томаш Левкович / Tomasz Lewkowicz
В ролях: Войцех Зилински, Джоанна Орлеанска, Каролина Горчица, Мария Гладковска, Леон Харевич, Добромир Дымецкий, Каролина Пихот, Виолетта Арлак, Алдона Янковска
Описание: У 35-летнего Михаила семья -- красавица жена Анна и дочь Юстинка. Однако это не мешает ему влюбиться в чувственную Каролину. Он не собирается разводиться, но любовница ставит ему ультиматум...
Сэмпл: http://yadi.sk/d/y2F5NPp-Qan6N
Качество видео: DVDRip
Формат видео: AVI
Видео: XviD, 1614 kb/s, 688x384, 25,000 кадров/сек
Аудио: AC3, 448 kb/s (6 ch) , 48,0 КГц

MediaInfo

I:\Качели\Hustawka.2010.DVDRip. СПАМ
General
Complete name : I:\Качели\Hustawka.2010.DVDRip. СПАМ
Format : AVI
Format/Info : Audio Video Interleave
File size : 1.36 GiB
Duration : 1h 34mn
Overall bit rate : 2 072 Kbps
Movie name : Приятного просмотра!
Director : Озвучка: Pashaup
Writing application : VirtualDubMod 1.5.10.2 (build 2540/release)
Original source form/Name : Movie
Video #0
ID : 0
Format : MPEG-4 Visual
Format profile : Advanced Simple@L5
Format settings, BVOP : 2
Format settings, QPel : No
Format settings, GMC : No warppoints
Format settings, Matrix : Default (H.263)
Codec ID : XVID
Codec ID/Hint : XviD
Duration : 1h 34mn
Bit rate : 1 615 Kbps
Width : 688 pixels
Height : 384 pixels
Display aspect ratio : 16:9
Frame rate : 25.000 fps
Color space : YUV
Chroma subsampling : 4:2:0
Bit depth : 8 bits
Scan type : Progressive
Compression mode : Lossy
Bits/(Pixel*Frame) : 0.244
Stream size : 1.06 GiB (78%)
Writing library : XviD 58
Audio #1
ID : 1
Format : AC-3
Format/Info : Audio Coding 3
Mode extension : CM (complete main)
Format settings, Endianness : Big
Codec ID : 2000
Duration : 1h 34mn
Bit rate mode : Constant
Bit rate : 448 Kbps
Channel count : 6 channels
Channel positions : Front: L C R, Side: L R, LFE
Sampling rate : 48.0 KHz
Bit depth : 16 bits
Compression mode : Lossy
Stream size : 302 MiB (22%)
Alignment : Split accross interleaves
Interleave, duration : 40 ms (1.00 video frame)
Interleave, preload duration : 500 ms

Скриншот c названием фильма

Скриншоты

[Профиль] [ЛС]

Создавать темы 06-Авг-2015 23:13 (спустя 11 месяцев 22 дня)

Топик был перенесен из форума Фильмы до 2014 года в форум Фильмы до 2012 года
sergej644
 

Создавать темы 12-Июн-2016 07:54 (спустя 1 год 9 месяцев)

Топик был перенесен из форума Фильмы 2011 года в форум Фильмы 2010 года
Russian Mafia
 
Показать сообщения:    

Текущее время: Сегодня 14:54

Часовой пояс: GMT



Вы не можете начинать темы
Вы не можете отвечать на сообщения
Вы не можете редактировать свои сообщения
Вы не можете удалять свои сообщения
Вы не можете голосовать в опросах
Вы не можете прикреплять файлы к сообщениям
Вы не можете скачивать файлы