Качели (2008) BDRip 1080p

 
Автор Сообщение

sergej644 ®

Пол:

Стаж: 4 года 11 месяцев

Сообщений: 6046

Откуда: Soviet Union



Награды: Нет

Торрент-статистика

Создавать темы 27-Янв-2015 04:36

[Цитировать]

Информация о фильме
Название: Качели
Год выхода: 2008
Жанр: Мелодрама
Режиссер: Антон Сиверс
В ролях: Андрей Мерзликин (Кувалда), Мария Миронова (Таня), Ксения Раппопорт (Инна Максимовна), Вячеслав Разбегаев (Шакир), Борис Хвошнянский (Корнилов), Хельга Филиппова (владелица салона красоты), Максим Бритвенков, Олег Гаркуша (хозяин наркоманского притона), Анатолий Петров (следователь), Полина Исаева (дочь Кувалды и Тани Леночка), Александр Стёпин (доктор)...
О фильме:
Уходя на работу, он не знает, вернётся ли домой. Потому что рисковать жизнью - его профессия. Но иногда смертельное ранение может нанести любовь, потому что любовь, как пуля, бьет прямо в сердце.
Вся жизнь героев этой ленты - Качели. То, задыхаясь от любви, они взлетают в облака, то с самого пика наслажденья падают вниз, в грязь и пустоту… Качели раскачиваются всё сильнее, и остановить их они попытаются лишь тогда, когда это почти невозможно.

Страна: Россия
Продолжительность: 01:30:26
Перевод: Оригинал
Файл
Кодек: H264
Качество: BDRip 1080p
Видео: 1920x816, 6463 Kbps, 23.976 fps
Звук: 48 kHz, AC3, 6c, 448 kbps
Субтитры: Нет
Семпл

MI

Общее
Формат : Matroska
Версия формата : Version 2
Размер файла : 4,36 Гбайт
Продолжительность : 1 ч. 30 м.
Общий поток : 6907 Кбит/сек
Название фильма : Качели (2008) BDRip 1080p от Dimok
Дата кодирования : UTC 2012-02-18 11:39:36
Программа кодирования : mkvmerge v5.2.1 ('A Far Off Place') built on Jan 2 2012 23:21:10
Библиотека кодирования : libebml v1.2.3 + libmatroska v1.3.0
Видео
Идентификатор : 1
Формат : AVC
Формат/Информация : Advanced Video Codec
Профиль формата : High@L4.1
Параметр CABAC формата : Да
Параметр ReFrames формата : 5 кадров
Идентификатор кодека : V_MPEG4/ISO/AVC
Продолжительность : 1 ч. 30 м.
Битрейт : 6463 Кбит/сек
Ширина : 1920 пикселей
Высота : 816 пикселей
Соотношение сторон : 2,35:1
Частота кадров : 23,976 кадра/сек
Цветовое пространство : YUV
Субдискретизация насыщенности : 4:2:0
Битовая глубина : 8 бит
Тип развёртки : Прогрессивная
Бит/(Пиксели*Кадры) : 0.172
Размер потока : 3,99 Гбайт (92%)
Библиотека кодирования : x264 core 92 r1510 33d382a
Настройки программы : cabac=1 / ref=5 / deblock=1:0:0 / analyse=0x3:0x133 / me=umh / subme=10 / psy=1 / psy_rd=1.00:0.10 / mixed_ref=1 / me_range=32 / chroma_me=1 / trellis=2 / 8x8dct=1 / cqm=0 / deadzone=21,11 / fast_pskip=0 / chroma_qp_offset=-3 / threads=6 / sliced_threads=0 / nr=0 / decimate=1 / interlaced=0 / constrained_intra=0 / bframes=6 / b_pyramid=2 / b_adapt=2 / b_bias=0 / direct=3 / wpredb=1 / wpredp=2 / keyint=240 / keyint_min=24 / scenecut=40 / intra_refresh=0 / rc_lookahead=60 / rc=2pass / mbtree=1 / bitrate=6463 / ratetol=1.0 / qcomp=0.60 / qpmin=10 / qpmax=51 / qpstep=4 / cplxblur=20.0 / qblur=0.5 / ip_ratio=1.40 / aq=1:1.00
Язык : Russian
Аудио
Идентификатор : 2
Формат : AC-3
Формат/Информация : Audio Coding 3
Расширение режима : CM (complete main)
Идентификатор кодека : A_AC3
Продолжительность : 1 ч. 30 м.
Вид битрейта : Постоянный
Битрейт : 448 Кбит/сек
Каналы : 6 каналов
Расположение каналов : Front: L C R, Side: L R, LFE
Частота : 48,0 КГц
Битовая глубина : 16 бит
Метод сжатия : С потерями
Размер потока : 290 Мбайт (6%)
Заголовок : Оригинал
Язык : Russian
[Профиль] [ЛС]
Показать сообщения:    

Текущее время: Сегодня 01:22

Часовой пояс: GMT



Вы не можете начинать темы
Вы не можете отвечать на сообщения
Вы не можете редактировать свои сообщения
Вы не можете удалять свои сообщения
Вы не можете голосовать в опросах
Вы не можете прикреплять файлы к сообщениям
Вы не можете скачивать файлы