(Шансон) Катерина Голицына (Яковлева) - Коллекция (11 CD) - 1998-2014, FLAC (image+.cue), lossless

 
Автор Сообщение

Russian Mafia ®

Пол:

Стаж: 1 год 8 месяцев

Сообщений: 4246



Награды: 10 (Подробнее)

Top Releaser 2 (Количество: 1) Top Releaser 5 (Количество: 1) Mega Seeder 3 (Количество: 1)
Торрент-статистика

Создавать темы 24-Авг-2015 10:35

[Цитировать]

Катерина Голицына (Яковлева) - Коллекция Жанр: Шансон, поп || Страна-производитель диска: Россия- Украина || Год издания диска: 1998-2012 || Аудиокодек: FLAC (*.flac) || Тип рипа: image+.cue
Битрейт аудио: lossless || Продолжительность: указано к каждому альбому || Источник (релизер): указано к каждому альбому || Наличие сканов в содержимом раздачи: да
Официальный сайт

1998 - Уходя-уходи

Жанр: Поп
Страна-производитель диска: Россия
Год издания диска: 1998
Издатель (лейбл): Студия "Союз"
Номер по каталогу: SZCD 0948-98
Аудиокодек: FLAC (*.flac)
Тип рипа: image+.cue
Битрейт аудио: lossless
Продолжительность: 0:42:46
Источник (релизер): Собственный рип
Наличие сканов в содержимом раздачи: да
Треклист:
01. Уходя-уходи
02. Я не скучаю по тебе
03. Там у причала
04. По белой дорожке
05. Только не со мной
06. Беги за ней
07. Чужое имя
08. План
09. На трёх аккордах
10. Снег пушисто-белый
11. Самолёты

Лог создания рипа

Exact Audio Copy V1.0 beta 2 from 29. April 2011
Отчёт EAC об извлечении, выполненном 23. декабря 2012, 11:41
Екатерина Яковлева / Уходя - уходи
Дисковод: PIONEER BD-RW BDR-207 Adapter: 8 ID: 0
Режим чтения : ДостоверностьИспользование точного потока : ДаОтключение кэша аудио : ДаИспользование указателей C2 : Нет
Коррекция смещения при чтении : 667Способность читать области Lead-in и Lead-out : НетЗаполнение пропущенных сэмплов тишиной : ДаУдаление блоков с тишиной в начале и конце : НетПри вычислениях CRC использовались нулевые сэмплы : ДаИнтерфейс : Встроенный Win32-интерфейс для Win NT/2000
Выходной формат : Внутренние WAV-операцииФормат сэмплов : 44.100 Гц; 16 бит; стерео
TOC извлечённого CD
Трек | Старт | Длительность | Начальный сектор | Конечный сектор --------------------------------------------------------------------- 1 | 0:00.10 | 3:29.58 | 10 | 15742 2 | 3:29.68 | 4:18.71 | 15743 | 35163 3 | 7:48.64 | 5:02.45 | 35164 | 57858 4 | 12:51.34 | 3:11.53 | 57859 | 72236 5 | 16:03.12 | 3:59.23 | 72237 | 90184 6 | 20:02.35 | 2:34.60 | 90185 | 101794 7 | 22:37.20 | 3:51.46 | 101795 | 119165 8 | 26:28.66 | 4:21.35 | 119166 | 138775 9 | 30:50.26 | 4:01.74 | 138776 | 156924 10 | 34:52.25 | 3:42.00 | 156925 | 173574 11 | 38:34.25 | 4:11.52 | 173575 | 192451
Характеристики диапазона извлечения и сообщения об ошибках
Выбранный диапазон
Имя файла F:\Мое\Катерина Голицына Коллекция\1998 - Уходя-уходи\Екатерина Яковлева - Уходя - уходи.wav
Пиковый уровень 97.7 % Скорость извлечения 6.5 X Качество диапазона 99.9 % CRC теста 1DACDC4C CRC копии 1DACDC4C Копирование... OK
Ошибок не произошло
AccurateRip: сводка
Трек 1 отсутствует в базе данныхТрек 2 отсутствует в базе данныхТрек 3 отсутствует в базе данныхТрек 4 отсутствует в базе данныхТрек 5 отсутствует в базе данныхТрек 6 отсутствует в базе данныхТрек 7 отсутствует в базе данныхТрек 8 отсутствует в базе данныхТрек 9 отсутствует в базе данныхТрек 10 отсутствует в базе данныхТрек 11 отсутствует в базе данных
Ни одного трека нет в базе AccurateRip
Конец отчёта

Лог проверки качества

AUDIOCHECKER v2.0 beta (build 457) - by Dester - opdester@freemail.hu~~~~~~~~~~~~~~~~~~~~~~~~~~~~~~~~~~-=== НЕ РЕДАКТИРУЙТЕ ЭТОТ ФАЙЛ! ===-
Путь: ...\1998 - Уходя-уходи
1 -=- Екатерина Яковлева - Уходя - уходи.wav -=- CDDA (100%)
79896116

Скриншот спектра частот

2002 - Нефраерский романс

Жанр: Шансон
Страна-производитель диска: Россия
Год издания диска: 2002
Издатель (лейбл): J.R.C
Номер по каталогу: JRC 02085-2
Аудиокодек: FLAC (*.flac)
Тип рипа: image+.cue
Битрейт аудио: lossless
Продолжительность: 1:02:16
Источник (релизер): Собственный рип
Наличие сканов в содержимом раздачи: да
Треклист:
01. Катала (Жорик)
02. Любимый
03. Белая сирень
04. Нефраерский романс
05. Наташка
06. Духи с ароматом озона
07. Тринадцать пуль
08. Окурочек
09. Желтая роза
10. Обломов
11. Русалка
12. Если ты не дождешься
13. Любимый remix
14. Нефраерский романс (инстр.)
15. Белая сирень (инстр.)
16. Желтая роза (инстр.)

Лог создания рипа

Exact Audio Copy V0.99 prebeta 5 from 4. May 2009
Отчёт EAC об извлечении, выполненном 16. января 2011, 22:32
Катерина Голицына / Нефраерский романс
Дисковод: TSSTcorpCDDVDW SH-S223F Adapter: 2 ID: 0
Режим чтения : ДостоверностьИспользование точного потока : ДаОтключение кэша аудио : ДаИспользование указателей C2 : Нет
Коррекция смещения при чтении : 6Способность читать области Lead-in и Lead-out : НетЗаполнение пропущенных сэмплов тишиной : ДаУдаление блоков с тишиной в начале и конце : НетПри вычислениях CRC использовались нулевые сэмплы : ДаИнтерфейс : Встроенный Win32-интерфейс для Win NT/2000
Выходной формат : Внутренние WAV-операцииФормат сэмплов : 44.100 Гц; 16 бит; стерео
TOC извлечённого CD
Трек | Старт | Длительность | Начальный сектор | Конечный сектор --------------------------------------------------------------------- 1 | 0:00.00 | 3:36.29 | 0 | 16228 2 | 3:36.29 | 4:18.11 | 16229 | 35589 3 | 7:54.40 | 4:16.34 | 35590 | 54823 4 | 12:10.74 | 3:20.38 | 54824 | 69861 5 | 15:31.37 | 4:20.63 | 69862 | 89424 6 | 19:52.25 | 4:02.15 | 89425 | 107589 7 | 23:54.40 | 3:36.35 | 107590 | 123824 8 | 27:31.00 | 3:14.73 | 123825 | 138447 9 | 30:45.73 | 3:44.07 | 138448 | 155254 10 | 34:30.05 | 4:09.12 | 155255 | 173941 11 | 38:39.17 | 4:12.25 | 173942 | 192866 12 | 42:51.42 | 3:40.16 | 192867 | 209382 13 | 46:31.58 | 4:20.36 | 209383 | 228918 14 | 50:52.19 | 3:22.21 | 228919 | 244089 15 | 54:14.40 | 4:16.03 | 244090 | 263292 16 | 58:30.43 | 3:45.20 | 263293 | 280187
Характеристики диапазона извлечения и сообщения об ошибках
Выбранный диапазон
Имя файла F:\Мое\Катерина Голицына 4 альбома\2002 Нефраерский романс\Катерина Голицына - Нефраерский романс.wav
Пиковый уровень 98.8 % Качество диапазона 100.0 % CRC теста FFB1A33C CRC копии FFB1A33C Копирование... OK
Ошибок не произошло
AccurateRip: сводка
Трек 1 нет в базе данныхТрек 2 нет в базе данныхТрек 3 нет в базе данныхТрек 4 нет в базе данныхТрек 5 нет в базе данныхТрек 6 нет в базе данныхТрек 7 нет в базе данныхТрек 8 нет в базе данныхТрек 9 нет в базе данныхТрек 10 нет в базе данныхТрек 11 нет в базе данныхТрек 12 нет в базе данныхТрек 13 нет в базе данныхТрек 14 нет в базе данныхТрек 15 нет в базе данныхТрек 16 нет в базе данных
Ни одного трека нет в базе AccurateRip
Конец отчёта

Лог проверки качества

AUDIOCHECKER v2.0 beta (build 457) - by Dester - opdester@freemail.hu~~~~~~~~~~~~~~~~~~~~~~~~~~~~~~~~~~-=== НЕ РЕДАКТИРУЙТЕ ЭТОТ ФАЙЛ! ===-
Путь: ...\2002 Нефраерский романс
01 -=- Катерина Голицына - Нефраерский романс.wav -=- CDDA (100%)
64714788

Скриншот спектра частот

2003 - Любовь заочная

Жанр: Шансон
Страна-производитель диска: Россия
Год издания диска: 2003
Издатель (лейбл): Компания "Русский шансон"
Номер по каталогу: РШ CD 029/03
Аудиокодек: FLAC (*.flac)
Тип рипа: image+.cue
Битрейт аудио: lossless
Продолжительность: 0:55:12
Источник (релизер): Собственный рип
Наличие сканов в содержимом раздачи: да
Треклист:
01. От звоночка до звоночка
02. Заплечные
03. Любовь заочная
04. Реверанс
05. Привокзальные голуби
06. Неправильная песня
07. Оперок
08. Десять лет
09. Встреча
10. Музыкант из перехода
11. Товарищ майор
12. Горький хрен
13. Сизый голубь
14. Над зоной метель

Лог создания рипа

Exact Audio Copy V1.0 beta 2 from 29. April 2011
Отчёт EAC об извлечении, выполненном 23. декабря 2012, 12:29
Катерина Голицына / Любовь заочная
Дисковод: PIONEER BD-RW BDR-207 Adapter: 8 ID: 0
Режим чтения : ДостоверностьИспользование точного потока : ДаОтключение кэша аудио : ДаИспользование указателей C2 : Нет
Коррекция смещения при чтении : 667Способность читать области Lead-in и Lead-out : НетЗаполнение пропущенных сэмплов тишиной : ДаУдаление блоков с тишиной в начале и конце : НетПри вычислениях CRC использовались нулевые сэмплы : ДаИнтерфейс : Встроенный Win32-интерфейс для Win NT/2000
Выходной формат : Внутренние WAV-операцииФормат сэмплов : 44.100 Гц; 16 бит; стерео
TOC извлечённого CD
Трек | Старт | Длительность | Начальный сектор | Конечный сектор --------------------------------------------------------------------- 1 | 0:00.00 | 4:38.14 | 0 | 20863 2 | 4:38.14 | 4:31.43 | 20864 | 41231 3 | 9:09.57 | 3:59.62 | 41232 | 59218 4 | 13:09.44 | 3:30.18 | 59219 | 74986 5 | 16:39.62 | 4:26.42 | 74987 | 94978 6 | 21:06.29 | 3:54.00 | 94979 | 112528 7 | 25:00.29 | 3:34.62 | 112529 | 128640 8 | 28:35.16 | 3:42.24 | 128641 | 145314 9 | 32:17.40 | 4:26.04 | 145315 | 165268 10 | 36:43.44 | 3:54.58 | 165269 | 182876 11 | 40:38.27 | 3:35.11 | 182877 | 199012 12 | 44:13.38 | 3:13.60 | 199013 | 213547 13 | 47:27.23 | 3:30.43 | 213548 | 229340 14 | 50:57.66 | 4:14.34 | 229341 | 248424
Характеристики диапазона извлечения и сообщения об ошибках
Выбранный диапазон
Имя файла F:\Мое\Катерина Голицына Коллекция\2003 - Любовь заочная\Катерина Голицына - Любовь заочная.wav
Пиковый уровень 98.9 % Скорость извлечения 7.1 X Качество диапазона 100.0 % CRC теста 8D7E2830 CRC копии 8D7E2830 Копирование... OK
Ошибок не произошло
AccurateRip: сводка
Трек 1 отсутствует в базе данныхТрек 2 отсутствует в базе данныхТрек 3 отсутствует в базе данныхТрек 4 отсутствует в базе данныхТрек 5 отсутствует в базе данныхТрек 6 отсутствует в базе данныхТрек 7 отсутствует в базе данныхТрек 8 отсутствует в базе данныхТрек 9 отсутствует в базе данныхТрек 10 отсутствует в базе данныхТрек 11 отсутствует в базе данныхТрек 12 отсутствует в базе данныхТрек 13 отсутствует в базе данныхТрек 14 отсутствует в базе данных
Ни одного трека нет в базе AccurateRip
Конец отчёта

Лог проверки качества

AUDIOCHECKER v2.0 beta (build 457) - by Dester - opdester@freemail.hu~~~~~~~~~~~~~~~~~~~~~~~~~~~~~~~~~~-=== НЕ РЕДАКТИРУЙТЕ ЭТОТ ФАЙЛ! ===-
Путь: ...\2003 - Любовь заочная
1 -=- Катерина Голицына - Любовь заочная.wav -=- CDDA (100%)
225488932

Скриншот спектра частот

2004 - Декабристочка

Жанр: Шансон
Страна-производитель диска: Россия
Год издания диска: 2004
Издатель (лейбл): Компания "Русский шансон"
Номер по каталогу: РШ CD 045/04
Аудиокодек: FLAC (*.flac)
Тип рипа: image+.cue
Битрейт аудио: lossless
Продолжительность: 0:56:42
Источник (релизер): Собственный рип
Наличие сканов в содержимом раздачи: да
Треклист:
01. Кольца дыма
02. Сухарики
03. Декабристочка
04. Пять точек
05. Песенка беспризорников
06. Денег нет
07. Первая ходочка
08. Стукачок
09. Алюминевая брошка
10. Таксист (дуэт с В. Волиным)
11. Светофор
12. Непрошенный гость
13. Золотой самородок
14. Расписная история

Лог создания рипа

Exact Audio Copy V1.0 beta 2 from 29. April 2011
Отчёт EAC об извлечении, выполненном 23. декабря 2012, 12:51
Катерина Голицына / Декабристочка
Дисковод: PIONEER BD-RW BDR-207 Adapter: 8 ID: 0
Режим чтения : ДостоверностьИспользование точного потока : ДаОтключение кэша аудио : ДаИспользование указателей C2 : Нет
Коррекция смещения при чтении : 667Способность читать области Lead-in и Lead-out : НетЗаполнение пропущенных сэмплов тишиной : ДаУдаление блоков с тишиной в начале и конце : НетПри вычислениях CRC использовались нулевые сэмплы : ДаИнтерфейс : Встроенный Win32-интерфейс для Win NT/2000
Выходной формат : Внутренние WAV-операцииФормат сэмплов : 44.100 Гц; 16 бит; стерео
TOC извлечённого CD
Трек | Старт | Длительность | Начальный сектор | Конечный сектор --------------------------------------------------------------------- 1 | 0:00.00 | 3:56.19 | 0 | 17718 2 | 3:56.19 | 3:50.70 | 17719 | 35038 3 | 7:47.14 | 3:32.01 | 35039 | 50939 4 | 11:19.15 | 4:27.71 | 50940 | 71035 5 | 15:47.11 | 3:25.23 | 71036 | 86433 6 | 19:12.34 | 3:59.07 | 86434 | 104365 7 | 23:11.41 | 4:19.02 | 104366 | 123792 8 | 27:30.43 | 3:25.01 | 123793 | 139168 9 | 30:55.44 | 4:14.54 | 139169 | 158272 10 | 35:10.23 | 4:51.02 | 158273 | 180099 11 | 40:01.25 | 3:17.21 | 180100 | 194895 12 | 43:18.46 | 4:22.15 | 194896 | 214560 13 | 47:40.61 | 4:30.44 | 214561 | 234854 14 | 52:11.30 | 4:31.07 | 234855 | 255186 15 | 59:14.37 | 13:01.32 | 266587 | 325193
Характеристики диапазона извлечения и сообщения об ошибках
Выбранный диапазон
Имя файла F:\Мое\Катерина Голицына Коллекция\2004 - Декабристочка\Катерина Голицына - Декабристочка.wav
Пиковый уровень 98.8 % Скорость извлечения 7.0 X Качество диапазона 100.0 % CRC теста 4D0B4453 CRC копии 4D0B4453 Копирование... OK
Ошибок не произошло
AccurateRip: сводка
Трек 1 отсутствует в базе данныхТрек 2 отсутствует в базе данныхТрек 3 отсутствует в базе данныхТрек 4 отсутствует в базе данныхТрек 5 отсутствует в базе данныхТрек 6 отсутствует в базе данныхТрек 7 отсутствует в базе данныхТрек 8 отсутствует в базе данныхТрек 9 отсутствует в базе данныхТрек 10 отсутствует в базе данныхТрек 11 отсутствует в базе данныхТрек 12 отсутствует в базе данныхТрек 13 отсутствует в базе данныхТрек 14 отсутствует в базе данных
Ни одного трека нет в базе AccurateRip
Конец отчёта

Лог проверки качества

AUDIOCHECKER v2.0 beta (build 457) - by Dester - opdester@freemail.hu~~~~~~~~~~~~~~~~~~~~~~~~~~~~~~~~~~-=== НЕ РЕДАКТИРУЙТЕ ЭТОТ ФАЙЛ! ===-
Путь: ...\2004 - Декабристочка
1 -=- Катерина Голицына - Декабристочка.wav -=- CDDA (100%)
258130084

Скриншот спектра частот

2005 - Северный блюз

Жанр: Шансон
Страна-производитель диска: Россия
Год издания диска: 2005
Издатель (лейбл): Истекс-Мьюзик
Номер по каталогу: EM CD 19/05
Аудиокодек: FLAC (*.flac)
Тип рипа: image+.cue
Битрейт аудио: lossless
Продолжительность: 0:58:48
Источник (релизер): Собственный рип
Наличие сканов в содержимом раздачи: да
Треклист:
01. День за днем
02. Как мы с тобою миримся (дуэт с А. Кальяновым)
03. Апельсинчики
04. Кидайте денежки
05. Отпусти мою любовь (дуэт с А. Звинцовым)
06. Письмо с севера
07. Считалка
08. Новый год (дуэт с М. Шуфутинским, Л. Шепиловой)
09. Северный блюз
10. Новорусская народная
11. Мисс зк (дуэт с В. Снежной, С. Сирень)
12. Хорошенькое дело
13. Жиганчики
14. Тюрьмы, лагеря
15. Не принимает воля

Лог создания рипа

Exact Audio Copy V1.0 beta 2 from 29. April 2011
Отчёт EAC об извлечении, выполненном 23. декабря 2012, 13:18
Катерина Голицына / Северный блюз
Дисковод: PIONEER BD-RW BDR-207 Adapter: 8 ID: 0
Режим чтения : ДостоверностьИспользование точного потока : ДаОтключение кэша аудио : ДаИспользование указателей C2 : Нет
Коррекция смещения при чтении : 667Способность читать области Lead-in и Lead-out : НетЗаполнение пропущенных сэмплов тишиной : ДаУдаление блоков с тишиной в начале и конце : НетПри вычислениях CRC использовались нулевые сэмплы : ДаИнтерфейс : Встроенный Win32-интерфейс для Win NT/2000
Выходной формат : Внутренние WAV-операцииФормат сэмплов : 44.100 Гц; 16 бит; стерео
TOC извлечённого CD
Трек | Старт | Длительность | Начальный сектор | Конечный сектор --------------------------------------------------------------------- 1 | 0:00.00 | 3:56.41 | 0 | 17740 2 | 3:56.41 | 3:09.28 | 17741 | 31943 3 | 7:05.69 | 3:43.27 | 31944 | 48695 4 | 10:49.21 | 3:45.02 | 48696 | 65572 5 | 14:34.23 | 4:05.07 | 65573 | 83954 6 | 18:39.30 | 4:01.70 | 83955 | 102099 7 | 22:41.25 | 3:23.11 | 102100 | 117335 8 | 26:04.36 | 3:57.37 | 117336 | 135147 9 | 30:01.73 | 4:53.35 | 135148 | 157157 10 | 34:55.33 | 4:16.44 | 157158 | 176401 11 | 39:12.02 | 3:50.37 | 176402 | 193688 12 | 43:02.39 | 3:36.62 | 193689 | 209950 13 | 46:39.26 | 3:20.05 | 209951 | 224955 14 | 49:59.31 | 4:27.52 | 224956 | 245032 15 | 54:27.08 | 4:20.33 | 245033 | 264565
Характеристики диапазона извлечения и сообщения об ошибках
Выбранный диапазон
Имя файла F:\Мое\Катерина Голицына Коллекция\2005 - Северный блюз\Катерина Голицына - Северный блюз.wav
Пиковый уровень 96.6 % Скорость извлечения 7.0 X Качество диапазона 100.0 % CRC теста DFF493E1 CRC копии DFF493E1 Копирование... OK
Ошибок не произошло
AccurateRip: сводка
Трек 1 отсутствует в базе данныхТрек 2 отсутствует в базе данныхТрек 3 отсутствует в базе данныхТрек 4 отсутствует в базе данныхТрек 5 отсутствует в базе данныхТрек 6 отсутствует в базе данныхТрек 7 отсутствует в базе данныхТрек 8 отсутствует в базе данныхТрек 9 отсутствует в базе данныхТрек 10 отсутствует в базе данныхТрек 11 отсутствует в базе данныхТрек 12 отсутствует в базе данныхТрек 13 отсутствует в базе данныхТрек 14 отсутствует в базе данныхТрек 15 отсутствует в базе данных
Ни одного трека нет в базе AccurateRip
Конец отчёта

Лог проверки качества

AUDIOCHECKER v2.0 beta (build 457) - by Dester - opdester@freemail.hu~~~~~~~~~~~~~~~~~~~~~~~~~~~~~~~~~~-=== НЕ РЕДАКТИРУЙТЕ ЭТОТ ФАЙЛ! ===-
Путь: ...\2005 - Северный блюз
1 -=- Катерина Голицына - Северный блюз.wav -=- CDDA (100%)
174066564

Скриншот спектра частот

2006 - С днём рождения, бродяга!

Жанр: Шансон
Страна-производитель диска: Россия
Год издания диска: 2006
Издатель (лейбл): Истекс-Мьюзик
Номер по каталогу: CC CD 22/06
Аудиокодек: FLAC (*.flac)
Тип рипа: image+.cue
Битрейт аудио: lossless
Продолжительность: 1:03:20
Источник (релизер): Собственный рип
Наличие сканов в содержимом раздачи: да
Треклист:
01. Догонялки
02. Деревенская история
03. Песенка про дядю
04. Мишка на севере
05. С днём рождения, Бродяга
06. Вороны
07. Дорога обратно
08. Бомбила
09. Дамский пистолетик
10. Деньги тают
11. Мы друзьями не станем
12. Твой отец-профессор
13. Невозвращенка
14. Огонёк твоего окна
15. Романс
16. Девичник (дуэт с Лялей Размаховой)
17. Барин (дуэт с Любовью Шепиловой)

Лог создания рипа

Exact Audio Copy V1.0 beta 2 from 29. April 2011
Отчёт EAC об извлечении, выполненном 23. декабря 2012, 13:41
Катерина Голицына / С днём рождения, бродяга!
Дисковод: PIONEER BD-RW BDR-207 Adapter: 8 ID: 0
Режим чтения : ДостоверностьИспользование точного потока : ДаОтключение кэша аудио : ДаИспользование указателей C2 : Нет
Коррекция смещения при чтении : 667Способность читать области Lead-in и Lead-out : НетЗаполнение пропущенных сэмплов тишиной : ДаУдаление блоков с тишиной в начале и конце : НетПри вычислениях CRC использовались нулевые сэмплы : ДаИнтерфейс : Встроенный Win32-интерфейс для Win NT/2000
Выходной формат : Внутренние WAV-операцииФормат сэмплов : 44.100 Гц; 16 бит; стерео
TOC извлечённого CD
Трек | Старт | Длительность | Начальный сектор | Конечный сектор --------------------------------------------------------------------- 1 | 0:00.00 | 3:18.15 | 0 | 14864 2 | 3:18.15 | 3:57.00 | 14865 | 32639 3 | 7:15.15 | 3:29.28 | 32640 | 48342 4 | 10:44.43 | 3:56.12 | 48343 | 66054 5 | 14:40.55 | 4:28.19 | 66055 | 86173 6 | 19:08.74 | 3:21.74 | 86174 | 101322 7 | 22:30.73 | 4:32.29 | 101323 | 121751 8 | 27:03.27 | 3:20.48 | 121752 | 136799 9 | 30:24.00 | 3:16.73 | 136800 | 151572 10 | 33:40.73 | 3:13.32 | 151573 | 166079 11 | 36:54.30 | 3:54.04 | 166080 | 183633 12 | 40:48.34 | 3:40.61 | 183634 | 200194 13 | 44:29.20 | 4:13.73 | 200195 | 219242 14 | 48:43.18 | 3:33.48 | 219243 | 235265 15 | 52:16.66 | 3:41.21 | 235266 | 251861 16 | 55:58.12 | 3:48.47 | 251862 | 269008 17 | 59:46.59 | 3:32.71 | 269009 | 284979
Характеристики диапазона извлечения и сообщения об ошибках
Выбранный диапазон
Имя файла F:\Мое\Катерина Голицына Коллекция\2006 - С днём рождения, бродяга!\Катерина Голицына - С днём рождения, бродяга!.wav
Пиковый уровень 98.8 % Скорость извлечения 7.5 X Качество диапазона 99.9 % CRC теста 2684F1F8 CRC копии 2684F1F8 Копирование... OK
Ошибок не произошло
AccurateRip: сводка
Трек 1 отсутствует в базе данныхТрек 2 отсутствует в базе данныхТрек 3 отсутствует в базе данныхТрек 4 отсутствует в базе данныхТрек 5 отсутствует в базе данныхТрек 6 отсутствует в базе данныхТрек 7 отсутствует в базе данныхТрек 8 отсутствует в базе данныхТрек 9 отсутствует в базе данныхТрек 10 отсутствует в базе данныхТрек 11 отсутствует в базе данныхТрек 12 отсутствует в базе данныхТрек 13 отсутствует в базе данныхТрек 14 отсутствует в базе данныхТрек 15 отсутствует в базе данныхТрек 16 отсутствует в базе данныхТрек 17 отсутствует в базе данных
Ни одного трека нет в базе AccurateRip
Конец отчёта

Лог проверки качества

AUDIOCHECKER v2.0 beta (build 457) - by Dester - opdester@freemail.hu~~~~~~~~~~~~~~~~~~~~~~~~~~~~~~~~~~-=== НЕ РЕДАКТИРУЙТЕ ЭТОТ ФАЙЛ! ===-
Путь: ...\2006 - С днём рождения, бродяга!
1 -=- Катерина Голицына - С днём рождения, бродяга!.wav -=- CDDA (100%)
124560948

Скриншот спектра частот

2008 - На гитарной струне

Жанр: Шансон
Страна-производитель диска: Россия
Год издания диска: 2008
Издатель (лейбл): Истекс-Мьюзик
Номер по каталогу: EM CD 26/08
Аудиокодек: FLAC (*.flac)
Тип рипа: image+.cue
Битрейт аудио: lossless
Продолжительность: 1:19:58
Источник (релизер): Собственный рип
Наличие сканов в содержимом раздачи: да
Треклист:
01. Апельсинчики
02. Музыкант из перехода
03. Все дела
04. Любовь заочная
05. Романс дворовой
06. Кольца дыма
07. Догонялки
08. Товарищ майор
09. Запретная любовь
10. Лучшая подруга
11. Светофор
12. Кидайте денежки
13. Невозвращенка
14. Вороны
15. С днём рождения, бродяга!
16. Богу-богово
17. Встреча
18. А на воле
19. Кепарик
20. Песенка про дядю
21. Хорошенькое дело

Лог создания рипа

Exact Audio Copy V1.0 beta 2 from 29. April 2011
Отчёт EAC об извлечении, выполненном 23. декабря 2012, 16:30
Катерина Голицына / На гитарной струне
Дисковод: PIONEER BD-RW BDR-207 Adapter: 8 ID: 0
Режим чтения : ДостоверностьИспользование точного потока : ДаОтключение кэша аудио : ДаИспользование указателей C2 : Нет
Коррекция смещения при чтении : 667Способность читать области Lead-in и Lead-out : НетЗаполнение пропущенных сэмплов тишиной : ДаУдаление блоков с тишиной в начале и конце : НетПри вычислениях CRC использовались нулевые сэмплы : ДаИнтерфейс : Встроенный Win32-интерфейс для Win NT/2000
Выходной формат : Внутренние WAV-операцииФормат сэмплов : 44.100 Гц; 16 бит; стерео
TOC извлечённого CD
Трек | Старт | Длительность | Начальный сектор | Конечный сектор --------------------------------------------------------------------- 1 | 0:00.00 | 3:42.50 | 0 | 16699 2 | 3:42.50 | 3:54.29 | 16700 | 34278 3 | 7:37.04 | 3:17.66 | 34279 | 49119 4 | 10:54.70 | 3:59.34 | 49120 | 67078 5 | 14:54.29 | 4:26.73 | 67079 | 87101 6 | 19:21.27 | 3:55.01 | 87102 | 104727 7 | 23:16.28 | 3:18.20 | 104728 | 119597 8 | 26:34.48 | 3:35.02 | 119598 | 135724 9 | 30:09.50 | 3:48.29 | 135725 | 152853 10 | 33:58.04 | 3:56.45 | 152854 | 170598 11 | 37:54.49 | 3:16.00 | 170599 | 185298 12 | 41:10.49 | 3:44.22 | 185299 | 202120 13 | 44:54.71 | 4:13.68 | 202121 | 221163 14 | 49:08.64 | 3:21.19 | 221164 | 236257 15 | 52:30.08 | 4:28.17 | 236258 | 256374 16 | 56:58.25 | 3:43.25 | 256375 | 273124 17 | 60:41.50 | 4:25.46 | 273125 | 293045 18 | 65:07.21 | 4:06.62 | 293046 | 311557 19 | 69:14.08 | 3:42.03 | 311558 | 328210 20 | 72:56.11 | 3:28.20 | 328211 | 343830 21 | 76:24.31 | 3:33.28 | 343831 | 359833
Характеристики диапазона извлечения и сообщения об ошибках
Выбранный диапазон
Имя файла F:\Мое\Катерина Голицына Коллекция\2008 - На гитарной струне\Катерина Голицына - На гитарной струне.wav
Пиковый уровень 98.9 % Скорость извлечения 5.0 X Качество диапазона 100.0 % CRC теста 0260DB2E CRC копии 0260DB2E Копирование... OK
Ошибок не произошло
AccurateRip: сводка
Трек 1 отсутствует в базе данныхТрек 2 отсутствует в базе данныхТрек 3 отсутствует в базе данныхТрек 4 отсутствует в базе данныхТрек 5 отсутствует в базе данныхТрек 6 отсутствует в базе данныхТрек 7 отсутствует в базе данныхТрек 8 отсутствует в базе данныхТрек 9 отсутствует в базе данныхТрек 10 отсутствует в базе данныхТрек 11 отсутствует в базе данныхТрек 12 отсутствует в базе данныхТрек 13 отсутствует в базе данныхТрек 14 отсутствует в базе данныхТрек 15 отсутствует в базе данныхТрек 16 отсутствует в базе данныхТрек 17 отсутствует в базе данныхТрек 18 отсутствует в базе данныхТрек 19 отсутствует в базе данныхТрек 20 отсутствует в базе данныхТрек 21 отсутствует в базе данных
Ни одного трека нет в базе AccurateRip
Конец отчёта

Лог проверки качества

AUDIOCHECKER v2.0 beta (build 457) - by Dester - opdester@freemail.hu~~~~~~~~~~~~~~~~~~~~~~~~~~~~~~~~~~-=== НЕ РЕДАКТИРУЙТЕ ЭТОТ ФАЙЛ! ===-
Путь: ...\2008 - На гитарной струне
1 -=- Катерина Голицына - На гитарной струне.wav -=- CDDA (99%)
238093508

Скриншот спектра частот

2011 - Дикая яблоня

Жанр: Шансон
Страна-производитель диска: Россия
Год издания диска: 2011
Издатель (лейбл): Истекс-Мьюзик
Номер по каталогу: EM CD 01/11
Аудиокодек: FLAC (*.flac)
Тип рипа: image+.cue
Битрейт аудио: lossless
Продолжительность: 1:18:30
Источник (релизер): Собственный рип
Наличие сканов в содержимом раздачи: да
Треклист:
01. Питер [03:27]
02. Уезжаешь [03:31]
03. Романс "Дворовой"
04. Дикая яблоня
05. Богу-Богово
06. Кепарик
07. Про дела
08. Кофе с коньяком
09. Перрон
10. К тебе лечу (дует с М.Бондаревым)
11. Лучшая подруга
12. Гороскоп
13. Лётная погода
14. А на воле
15. Вор
16. По дороге к Питеру
17. Звёздочки-фонарики
18. Званный вечер
19. Романс "Спасибо"
20. Женщина

Лог создания рипа

Exact Audio Copy V1.0 beta 2 from 29. April 2011
Отчёт EAC об извлечении, выполненном 23. декабря 2012, 14:07
Катерина Голицына / Дикая яблоня
Дисковод: PIONEER BD-RW BDR-207 Adapter: 8 ID: 0
Режим чтения : ДостоверностьИспользование точного потока : ДаОтключение кэша аудио : ДаИспользование указателей C2 : Нет
Коррекция смещения при чтении : 667Способность читать области Lead-in и Lead-out : НетЗаполнение пропущенных сэмплов тишиной : ДаУдаление блоков с тишиной в начале и конце : НетПри вычислениях CRC использовались нулевые сэмплы : ДаИнтерфейс : Встроенный Win32-интерфейс для Win NT/2000
Выходной формат : Внутренние WAV-операцииФормат сэмплов : 44.100 Гц; 16 бит; стерео
TOC извлечённого CD
Трек | Старт | Длительность | Начальный сектор | Конечный сектор --------------------------------------------------------------------- 1 | 0:00.00 | 3:27.68 | 0 | 15592 2 | 3:27.68 | 3:31.18 | 15593 | 31435 3 | 6:59.11 | 4:26.68 | 31436 | 51453 4 | 11:26.04 | 4:33.01 | 51454 | 71929 5 | 15:59.05 | 3:43.70 | 71930 | 88724 6 | 19:43.00 | 3:43.48 | 88725 | 105497 7 | 23:26.48 | 3:20.18 | 105498 | 120515 8 | 26:46.66 | 4:35.23 | 120516 | 141163 9 | 31:22.14 | 4:20.19 | 141164 | 160682 10 | 35:42.33 | 3:50.64 | 160683 | 177996 11 | 39:33.22 | 3:56.71 | 177997 | 195767 12 | 43:30.18 | 4:02.33 | 195768 | 213950 13 | 47:32.51 | 4:26.19 | 213951 | 233919 14 | 51:58.70 | 4:08.10 | 233920 | 252529 15 | 56:07.05 | 3:26.27 | 252530 | 268006 16 | 59:33.32 | 3:34.11 | 268007 | 284067 17 | 63:07.43 | 3:50.69 | 284068 | 301386 18 | 66:58.37 | 4:05.47 | 301387 | 319808 19 | 71:04.09 | 3:43.58 | 319809 | 336591 20 | 74:47.67 | 3:41.54 | 336592 | 353220
Характеристики диапазона извлечения и сообщения об ошибках
Выбранный диапазон
Имя файла F:\Мое\Катерина Голицына Коллекция\2011 - Дикая яблоня\Катерина Голицына - Дикая яблоня.wav
Пиковый уровень 98.8 % Скорость извлечения 7.9 X Качество диапазона 100.0 % CRC теста 44104F85 CRC копии 44104F85 Копирование... OK
Ошибок не произошло
AccurateRip: сводка
Трек 1 отсутствует в базе данныхТрек 2 отсутствует в базе данныхТрек 3 отсутствует в базе данныхТрек 4 отсутствует в базе данныхТрек 5 отсутствует в базе данныхТрек 6 отсутствует в базе данныхТрек 7 отсутствует в базе данныхТрек 8 отсутствует в базе данныхТрек 9 отсутствует в базе данныхТрек 10 отсутствует в базе данныхТрек 11 отсутствует в базе данныхТрек 12 отсутствует в базе данныхТрек 13 отсутствует в базе данныхТрек 14 отсутствует в базе данныхТрек 15 отсутствует в базе данныхТрек 16 отсутствует в базе данныхТрек 17 отсутствует в базе данныхТрек 18 отсутствует в базе данныхТрек 19 отсутствует в базе данныхТрек 20 отсутствует в базе данных
Ни одного трека нет в базе AccurateRip
Конец отчёта

Лог проверки качества

AUDIOCHECKER v2.0 beta (build 457) - by Dester - opdester@freemail.hu~~~~~~~~~~~~~~~~~~~~~~~~~~~~~~~~~~-=== НЕ РЕДАКТИРУЙТЕ ЭТОТ ФАЙЛ! ===-
Путь: ...\2011 - Дикая яблоня
1 -=- Катерина Голицына - Дикая яблоня.wav -=- CDDA (100%)
230336324

Скриншот спектра частот

2012 - Другая

Жанр: Шансон/Поп
Страна-производитель диска: Украина
Год издания диска: 2012
Издатель (лейбл): Artur-Music
Номер по каталогу: CD 539
Аудиокодек: FLAC (*.flac)
Тип рипа: image+.cue
Битрейт аудио: lossless
Продолжительность: 1:05:41
Источник (релизер): Собственный рип
Наличие сканов в содержимом раздачи: да
Треклист:
01. Другая
02. Никому не говори
03. Не дай мне уйти
04. Случайный роман
05. Поздновстреченный
06. Ты
07. Я хочу возвращаться
08. Попутчик
09. Если можешь
10. Май
11. До свиданья
12. Нет
13. Переболею
14. Все прошло (дуэт с М.Шуфутинским)
15. Ты одна и я один (дуэт с В.Курасом)
16. Новогодняя (бонус)
17. Рождество (бонус)

Лог создания рипа

Exact Audio Copy V1.0 beta 2 from 29. April 2011
Отчёт EAC об извлечении, выполненном 23. декабря 2012, 14:32
Катерина Голицына / Другая
Дисковод: PIONEER BD-RW BDR-207 Adapter: 8 ID: 0
Режим чтения : ДостоверностьИспользование точного потока : ДаОтключение кэша аудио : ДаИспользование указателей C2 : Нет
Коррекция смещения при чтении : 667Способность читать области Lead-in и Lead-out : НетЗаполнение пропущенных сэмплов тишиной : ДаУдаление блоков с тишиной в начале и конце : НетПри вычислениях CRC использовались нулевые сэмплы : ДаИнтерфейс : Встроенный Win32-интерфейс для Win NT/2000
Выходной формат : Внутренние WAV-операцииФормат сэмплов : 44.100 Гц; 16 бит; стерео
TOC извлечённого CD
Трек | Старт | Длительность | Начальный сектор | Конечный сектор --------------------------------------------------------------------- 1 | 0:00.00 | 3:59.47 | 0 | 17971 2 | 3:59.47 | 3:30.70 | 17972 | 33791 3 | 7:30.42 | 3:53.27 | 33792 | 51293 4 | 11:23.69 | 3:51.42 | 51294 | 68660 5 | 15:15.36 | 3:07.33 | 68661 | 82718 6 | 18:22.69 | 3:45.41 | 82719 | 99634 7 | 22:08.35 | 4:44.37 | 99635 | 120971 8 | 26:52.72 | 4:07.34 | 120972 | 139530 9 | 31:00.31 | 4:06.17 | 139531 | 157997 10 | 35:06.48 | 3:55.71 | 157998 | 175693 11 | 39:02.44 | 3:54.66 | 175694 | 193309 12 | 42:57.35 | 3:42.60 | 193310 | 210019 13 | 46:40.20 | 4:09.34 | 210020 | 228728 14 | 50:49.54 | 3:28.11 | 228729 | 244339 15 | 54:17.65 | 3:18.37 | 244340 | 259226 16 | 57:36.27 | 3:48.48 | 259227 | 276374 17 | 61:25.00 | 4:15.53 | 276375 | 295552
Характеристики диапазона извлечения и сообщения об ошибках
Выбранный диапазон
Имя файла F:\Мое\Катерина Голицына Коллекция\2012 - Другая\Катерина Голицына - Другая.wav
Пиковый уровень 100.0 % Скорость извлечения 7.1 X Качество диапазона 100.0 % CRC теста 8B15D771 CRC копии 8B15D771 Копирование... OK
Ошибок не произошло
AccurateRip: сводка
Трек 1 отсутствует в базе данныхТрек 2 отсутствует в базе данныхТрек 3 отсутствует в базе данныхТрек 4 отсутствует в базе данныхТрек 5 отсутствует в базе данныхТрек 6 отсутствует в базе данныхТрек 7 отсутствует в базе данныхТрек 8 отсутствует в базе данныхТрек 9 отсутствует в базе данныхТрек 10 отсутствует в базе данныхТрек 11 отсутствует в базе данныхТрек 12 отсутствует в базе данныхТрек 13 отсутствует в базе данныхТрек 14 отсутствует в базе данныхТрек 15 отсутствует в базе данныхТрек 16 отсутствует в базе данныхТрек 17 отсутствует в базе данных
Ни одного трека нет в базе AccurateRip
Конец отчёта

Лог проверки качества

AUDIOCHECKER v2.0 beta (build 457) - by Dester - opdester@freemail.hu~~~~~~~~~~~~~~~~~~~~~~~~~~~~~~~~~~-=== НЕ РЕДАКТИРУЙТЕ ЭТОТ ФАЙЛ! ===-
Путь: ...\2012 - Другая
1 -=- Катерина Голицына - Другая.wav -=- CDDA (100%)
5088100

Скриншот спектра частот

2013 - Бессонница

Жанр: Шансон/Поп
Страна-производитель диска: Россия
Год издания диска: 2013
Издатель (лейбл): Классик Компани
Номер по каталогу: UMGCD13-237
Аудиокодек: FLAC (*.flac)
Тип рипа: image+.cue
Битрейт аудио: lossless
Продолжительность: 1:19:48
Источник (релизер): Собственный рип
Наличие сканов в содержимом раздачи: да
Треклист:
01. Бессонница
02. Птицами любви
03. Бессовестно счастливая
04. Какая дама пропадает
05. Тест на любовь (дуэт с Гариком Кричевским)
06. Ты далеко
07. Мы разные
08. Не ревнуй
09. На дне души
10. Сезонная любовь
11. Лучше поздно, чем никогда (дуэт с Леонидом Телешевым)
12. Ты так хотел быть принцем
13. Малиновый снег
14. Одна
15. За весной
16. Замуж за гаишника
17. Между нами, девочками
18. Мой муж- муженёк
19. Сочи
20. Выбираю любовь

Лог создания рипа

Exact Audio Copy V1.0 beta 3 from 29. August 2011
Отчёт EAC об извлечении, выполненном 7. сентября 2014, 12:08
Катерина Голицына / Бессонница
Дисковод: PIONEER BD-RW BDR-207 Adapter: 7 ID: 0
Режим чтения : ДостоверностьИспользование точного потока : ДаОтключение кэша аудио : ДаИспользование указателей C2 : Нет
Коррекция смещения при чтении : 667Способность читать области Lead-in и Lead-out : НетЗаполнение пропущенных сэмплов тишиной : ДаУдаление блоков с тишиной в начале и конце : НетПри вычислениях CRC использовались нулевые сэмплы : ДаИнтерфейс : Встроенный Win32-интерфейс для Win NT/2000
Выходной формат : Внутренние WAV-операцииФормат сэмплов : 44.100 Гц; 16 бит; стерео
TOC извлечённого CD
Трек | Старт | Длительность | Начальный сектор | Конечный сектор --------------------------------------------------------------------- 1 | 0:00.00 | 4:00.39 | 0 | 18038 2 | 4:00.39 | 4:17.60 | 18039 | 37373 3 | 8:18.24 | 4:12.70 | 37374 | 56343 4 | 12:31.19 | 3:57.73 | 56344 | 74191 5 | 16:29.17 | 3:38.10 | 74192 | 90551 6 | 20:07.27 | 4:16.58 | 90552 | 109809 7 | 24:24.10 | 3:03.17 | 109810 | 123551 8 | 27:27.27 | 3:47.42 | 123552 | 140618 9 | 31:14.69 | 4:06.11 | 140619 | 159079 10 | 35:21.05 | 3:41.08 | 159080 | 175662 11 | 39:02.13 | 4:11.42 | 175663 | 194529 12 | 43:13.55 | 3:56.14 | 194530 | 212243 13 | 47:09.69 | 4:54.14 | 212244 | 234307 14 | 52:04.08 | 3:44.20 | 234308 | 251127 15 | 55:48.28 | 4:19.03 | 251128 | 270555 16 | 60:07.31 | 4:12.17 | 270556 | 289472 17 | 64:19.48 | 3:49.32 | 289473 | 306679 18 | 68:09.05 | 3:10.17 | 306680 | 320946 19 | 71:19.22 | 4:03.73 | 320947 | 339244 20 | 75:23.20 | 4:24.20 | 339245 | 359064
Характеристики диапазона извлечения и сообщения об ошибках
Выбранный диапазон
Имя файла F:\Мое\Катерина Голицына Коллекция\2013 - Бессонница\Катерина Голицына - Бессонница.wav
Пиковый уровень 100.0 % Скорость извлечения 7.9 X Качество диапазона 100.0 % CRC теста 3EFD2D6E CRC копии 3EFD2D6E Копирование... OK
Ошибок не произошло
AccurateRip: сводка
Трек 1 : извлечено точно (доверие 1) [5B53FC1F] (AR v2)Трек 2 : извлечено точно (доверие 1) [1318DA72] (AR v2)Трек 3 : извлечено точно (доверие 1) [CD8C0C09] (AR v2)Трек 4 : извлечено точно (доверие 1) [FE95DA4B] (AR v2)Трек 5 : извлечено точно (доверие 1) [84FC0AF2] (AR v2)Трек 6 : извлечено точно (доверие 1) [EC531BD3] (AR v2)Трек 7 : извлечено точно (доверие 1) [8B0A8C74] (AR v2)Трек 8 : извлечено точно (доверие 1) [ED8AB17C] (AR v2)Трек 9 : извлечено точно (доверие 1) [DD710988] (AR v2)Трек 10 : извлечено точно (доверие 1) [423402A1] (AR v2)Трек 11 : извлечено точно (доверие 1) [AD741E1D] (AR v2)Трек 12 : извлечено точно (доверие 1) [A798FF20] (AR v2)Трек 13 : извлечено точно (доверие 1) [2BF0A72F] (AR v2)Трек 14 : извлечено точно (доверие 1) [88D8DDAD] (AR v2)Трек 15 : извлечено точно (доверие 1) [72C72165] (AR v2)Трек 16 : извлечено точно (доверие 1) [BE27A6A0] (AR v2)Трек 17 : извлечено точно (доверие 1) [C36A03ED] (AR v2)Трек 18 : извлечено точно (доверие 1) [F0A80F56] (AR v2)Трек 19 : извлечено точно (доверие 1) [ACCD8430] (AR v2)Трек 20 : извлечено точно (доверие 1) [1BDBF901] (AR v2)
Все треки извлечены точно
Конец отчёта
==== Контрольная сумма отчёта 0560F789247F42039CBEBC4B647E3B2342C6704DA866243ECCDAFD15BA3044CB ====

Лог проверки качества

AUDIOCHECKER v2.0 beta (build 457) - by Dester - opdester@freemail.hu~~~~~~~~~~~~~~~~~~~~~~~~~~~~~~~~~~-=== НЕ РЕДАКТИРУЙТЕ ЭТОТ ФАЙЛ! ===-
Путь: ...\2013 - Бессонница
1 -=- Катерина Голицына - Бессонница.flac -=- CDDA (100%)
54972548

Скриншот спектра частот

2014 - Какая Дама пропадает

Жанр: Шансон/Поп
Страна-производитель диска: Россия
Год издания диска: 2014
Издатель (лейбл): Студия "Монолит"
Номер по каталогу: МТ 001091-390-1
Аудиокодек: FLAC (*.flac)
Тип рипа: image+.cue
Битрейт аудио: lossless
Продолжительность: 1:18:59
Источник (релизер): Собственный рип
Наличие сканов в содержимом раздачи: да
Треклист:
01. Бессовестно счастливая
02. Май
03. Какая дама пропадает
04. Не дай мне уйти
05. Ты далеко
06. Никому не говори
07. Случайный роман
08. Любовь ушла
09. Птицами любви
10. На дне души
11. Ты так хотел быть принцем
12. Другая
13. Поздновстреченный
14. Попутчик
15. Если можешь
16. Сезонная любовь
17. Ты
18. Переболею
19. Мы разные
20. Я хочу возвращаться

Лог создания рипа

Exact Audio Copy V1.0 beta 3 from 29. August 2011
Отчёт EAC об извлечении, выполненном 29. августа 2014, 22:08
Катерина Голицина / Какая Дама пропадает
Дисковод: PIONEER BD-RW BDR-207 Adapter: 7 ID: 0
Режим чтения : ДостоверностьИспользование точного потока : ДаОтключение кэша аудио : ДаИспользование указателей C2 : Нет
Коррекция смещения при чтении : 667Способность читать области Lead-in и Lead-out : НетЗаполнение пропущенных сэмплов тишиной : ДаУдаление блоков с тишиной в начале и конце : НетПри вычислениях CRC использовались нулевые сэмплы : ДаИнтерфейс : Встроенный Win32-интерфейс для Win NT/2000
Выходной формат : Внутренние WAV-операцииФормат сэмплов : 44.100 Гц; 16 бит; стерео
TOC извлечённого CD
Трек | Старт | Длительность | Начальный сектор | Конечный сектор --------------------------------------------------------------------- 1 | 0:00.00 | 4:13.20 | 0 | 18994 2 | 4:13.20 | 3:57.28 | 18995 | 36797 3 | 8:10.48 | 3:58.55 | 36798 | 54702 4 | 12:09.28 | 3:55.06 | 54703 | 72333 5 | 16:04.34 | 4:17.10 | 72334 | 91618 6 | 20:21.44 | 3:32.57 | 91619 | 107575 7 | 23:54.26 | 3:53.19 | 107576 | 125069 8 | 27:47.45 | 3:52.69 | 125070 | 142538 9 | 31:40.39 | 4:20.58 | 142539 | 162096 10 | 36:01.22 | 4:06.19 | 162097 | 180565 11 | 40:07.41 | 3:55.68 | 180566 | 198258 12 | 44:03.34 | 4:01.20 | 198259 | 216353 13 | 48:04.54 | 3:09.45 | 216354 | 230573 14 | 51:14.24 | 4:09.04 | 230574 | 249252 15 | 55:23.28 | 4:08.37 | 249253 | 267889 16 | 59:31.65 | 3:39.73 | 267890 | 284387 17 | 63:11.63 | 3:47.25 | 284388 | 301437 18 | 66:59.13 | 4:10.66 | 301438 | 320253 19 | 71:10.04 | 3:02.57 | 320254 | 333960 20 | 74:12.61 | 4:46.10 | 333961 | 355420
Характеристики диапазона извлечения и сообщения об ошибках
Выбранный диапазон
Имя файла F:\Мое\Катерина Голицына Коллекция\2014 - Какая Дама пропадает\Катерина Голицина - Какая Дама пропадает.wav
Пиковый уровень 98.8 % Скорость извлечения 8.0 X Качество диапазона 100.0 % CRC теста 45D89466 CRC копии 45D89466 Копирование... OK
Ошибок не произошло
AccurateRip: сводка
Трек 1 отсутствует в базе данныхТрек 2 отсутствует в базе данныхТрек 3 отсутствует в базе данныхТрек 4 отсутствует в базе данныхТрек 5 отсутствует в базе данныхТрек 6 отсутствует в базе данныхТрек 7 отсутствует в базе данныхТрек 8 отсутствует в базе данныхТрек 9 отсутствует в базе данныхТрек 10 отсутствует в базе данныхТрек 11 отсутствует в базе данныхТрек 12 отсутствует в базе данныхТрек 13 отсутствует в базе данныхТрек 14 отсутствует в базе данныхТрек 15 отсутствует в базе данныхТрек 16 отсутствует в базе данныхТрек 17 отсутствует в базе данныхТрек 18 отсутствует в базе данныхТрек 19 отсутствует в базе данныхТрек 20 отсутствует в базе данных
Ни одного трека нет в базе AccurateRip
Конец отчёта
==== Контрольная сумма отчёта 32A290B7FD65E20182488EDB4E9F6CF70C56A5D88557D9E103EE0E531D991E0B ====

Лог проверки качества

AUDIOCHECKER v2.0 beta (build 457) - by Dester - opdester@freemail.hu~~~~~~~~~~~~~~~~~~~~~~~~~~~~~~~~~~-=== НЕ РЕДАКТИРУЙТЕ ЭТОТ ФАЙЛ! ===-
Путь: ...\2014 - Какая Дама пропадает
1 -=- Катерина Голицина - Какая Дама пропадает.flac -=- CDDA (100%)
47429508

Скриншот спектра частот

[Профиль] [ЛС]
Кто просматривает тему:

Показать сообщения:    

Текущее время: Сегодня 07:04

Часовой пояс: GMT



Вы не можете начинать темы
Вы не можете отвечать на сообщения
Вы не можете редактировать свои сообщения
Вы не можете удалять свои сообщения
Вы не можете голосовать в опросах
Вы не можете прикреплять файлы к сообщениям
Вы не можете скачивать файлы