Карусель (Михаил Швейцер) [1970, комедия, DVB]

 
Автор Сообщение

reversefile ®

Пол:

Стаж: 4 года 5 месяцев

Сообщений: 842

Откуда: ReverseFile.org



Награды: Нет

Торрент-статистика

Создавать темы 11-Авг-2014 06:20

[Цитировать]

Карусель
Жанр: комедия
Год выпуска: 1970
Продолжительность: 01:23:10
Режиссёр: Михаил Швейцер
В ролях: Владимир Басов, Наталья Воробьева, Евгений Леонов, Иван Лапиков, Валентина Титова
Описание:
Фильм поставлен по ранним рассказам, очеркам и зарисовкам Антона Павловича Чехова: «Тоска», «Размазня», «Благородный», «Циник», «О вреде табака», «Поленька».
Вы узнаете, как надо благодарить пожилого мужа молодой красавицы за данные в долг деньги, познакомитесь с историей «несчастного» влюбленного, посмеетесь над злоключениями невезучего контрабасиста.
Доп. информация: Запись потока *.ts со спутника EUTELSAT 36A/B, 36° в.д., ремукс в *.mpg программой VideoReDo.
Качество видео: DVB
Формат видео: MPEG-РS
Видео: MPEG Video, 720x576 (4 : 3), 25,000 кадров/сек, 3015 Кбит/сек
Аудио: MPEG Audio, 48,0 КГц, 192 Кбит/сек, 2 канала

MediaInfo

Общее
Полное имя : D:\Torrent\КАРУСЕЛЬ (Дом Кино).mpg
Формат : MPEG-PS
Размер файла : 1,90 Гбайт
Продолжительность : 1 ч. 23 м.
Режим общего битрейта : Переменный
Общий поток : 3272 Кбит/сек
Видео
Идентификатор : 224 (0xE0)
Формат : MPEG Video
Версия формата : Version 2
Профиль формата : Main@Main
Параметр BVOP формата : Да
Параметр матрицы формата : Выборочная
Параметр GOP формата : M=3, N=12
Продолжительность : 1 ч. 23 м.
Вид битрейта : Переменный
Битрейт : 3015 Кбит/сек
Максимальный битрейт : 5000 Кбит/сек
Ширина : 720 пикселей
Высота : 576 пикселей
Соотношение сторон : 4:3
Частота кадров : 25,000 кадров/сек
Стандарт вещания : PAL
Цветовое пространство : YUV
Субдискретизация насыщенности : 4:2:0
Битовая глубина : 8 бит
Тип развёртки : Чересстрочная
Порядок развёртки : Верхнее поле первое
Метод сжатия : С потерями
Бит/(Пиксели*Кадры) : 0.291
Временной код первого кадра : 00:00:00:00
Оригинал временного кода : Group of pictures header
Размер потока : 1,75 Гбайт (92%)
Аудио
Идентификатор : 192 (0xC0)
Формат : MPEG Audio
Версия формата : Version 1
Профиль формата : Layer 2
Продолжительность : 1 ч. 23 м.
Вид битрейта : Постоянный
Битрейт : 192 Кбит/сек
Каналы : 2 канала
Частота : 48,0 КГц
Метод сжатия : С потерями
Задержка видео : 11 мс.
Размер потока : 114 Мбайт (6%)
[Профиль] [ЛС]

Создавать темы 06-Авг-2015 22:04 (спустя 11 месяцев 26 дней)

Топик был перенесен из форума Кино СССР в форум Кино СССР
sergej644
 
Кто просматривает тему:

Форум Тема Автор Размер
Фильмы 2009 года Бременские музыканты / Die Bremer Stadtmusikanten (Дирк Регель / Dirk Regel) [2009, Германия, детский, семейный, сказка, HDTVRip] MVO (ТВЦ) + Dub (Карусель) + Original Ger TorrentFilm 1.1 GB
Мультфильмы СССР Веселая карусель / Сборник мультфильмов / Выпуск 1 (1969) DVD5 by гаврила Белочка 4 GB
Мультфильмы СССР Веселая карусель / Сборник мультфильмов / Выпуск 3 (1977) DVD5 by гаврила Белочка 3.74 GB
Отечественные мультсериалы Весёлая карусель [01-41 из 41] (1969-2015) WEBRip BOSS 5.4 GB
Отечественные мультфильмы Веселая карусель № 30: Тайна (Татьяна Ильина) [1996, мультфильм, DVB] TorrentFilm 92 MB
Отечественные мультфильмы Веселая карусель №1: Антошка (Леонид Носырев) [1969, мультфильм, DVB] TorrentFilm 76 MB
Отечественные мультфильмы Веселая карусель №28 (Эх!; Так не бывает; Девица Бигелоу, или жевательная история) (Татьяна Ильина, Эльвира Авакян) [1995, мультфильм, DVB] TorrentFilm 251 MB
Отечественные мультфильмы Веселая карусель №5: Небылицы в лицах (Геннадий Сокольский) [1973, мультфильм, DVB] TorrentFilm 73 MB
Показать сообщения:    

Текущее время: Сегодня 10:54

Часовой пояс: GMT



Вы не можете начинать темы
Вы не можете отвечать на сообщения
Вы не можете редактировать свои сообщения
Вы не можете удалять свои сообщения
Вы не можете голосовать в опросах
Вы не можете прикреплять файлы к сообщениям
Вы не можете скачивать файлы