Карты великих первооткрывателей / Maps of the great explorers (Жиль Кебаили) [2008, Документально-постановочный, познавательный, история, HDTVRip 720p]

 
Автор Сообщение

TorrentFilm ®

Пол:

Стаж: 2 года

Сообщений: 7741



Награды: Нет

Торрент-статистика

Создавать темы 07-Апр-2015 00:03

[Цитировать]

Карты великих первооткрывателей / Maps of the great explorers
Год выпуска: 2008
Страна: Франция
Студия: Grand Angle Productions
Жанр: Документально-постановочный, познавательный, история
Продолжительность: 00:50:57
Перевод: Профессиональный (одноголосый закадровый)
Доп. инфо о переводе: 1ТВЧ
Режиссер: Жиль Кебаили
Описание: Этот фильм - эпопея великих географических открытий, которая позволила создать современную карту мира? Лаперуз, Веспуччи, Колумб, Васко да Гама, Магеллан, Бугенвиль, Кук и многие другие были первопроходцами. Мы проследим их истории, четыреста лет приключений в далеких океанах, чтобы прорисовать черты лица планеты Земля. Как они осмелились отправиться в океан в те времена, когда ещё верили в демонов и адское море? Как они решились отправляться в такую даль, если их единственными картами были карты, созданные в античности? Сколько им пришлось пережить, чтобы сделать картину мира такой, какую мы наблюдаем по сей день?
Сэмпл: Скачать
Тип релиза: HDTVRip 720p
Контейнер: MKV
Видео: MPEG-4 AVC, 4140 Кбит/с, 1280x720
Аудио: AC3, 6 ch, 448 Кбит/с

MediaInfo

GeneralUnique ID : 219384874053375624271745814961466882404 (0xA50BFD656694138BB7D9455FBE43B964)Complete name : M:\Торренты\Документальные\Карты великих первооткрывателей_720p.mkvFormat : MatroskaFormat version : Version 4 / Version 2File size : 1.63 GiBDuration : 50mn 57sOverall bit rate : 4 590 KbpsEncoded date : UTC 2015-04-02 16:29:02Writing application : mkvmerge v6.6.0 ('The Edge Of The In Between') built on Dec 1 2013 17:55:00Writing library : libebml v1.3.0 + libmatroska v1.4.1
VideoID : 1Format : AVCFormat/Info : Advanced Video CodecFormat profile : High@L4.1Format settings, CABAC : YesFormat settings, ReFrames : 9 framesCodec ID : V_MPEG4/ISO/AVCDuration : 50mn 57sBit rate : 4 140 KbpsWidth : 1 280 pixelsHeight : 720 pixelsDisplay aspect ratio : 16:9Frame rate mode : ConstantFrame rate : 25.000 fpsColor space : YUVChroma subsampling : 4:2:0Bit depth : 8 bitsScan type : ProgressiveBits/(Pixel*Frame) : 0.180Stream size : 1.44 GiB (88%)Writing library : x264 core 146 r2538 121396cEncoding settings : cabac=1 / ref=9 / deblock=1:-3:-3 / analyse=0x3:0x133 / me=umh / subme=9 / psy=1 / psy_rd=1.00:0.10 / mixed_ref=1 / me_range=32 / chroma_me=1 / trellis=2 / 8x8dct=1 / cqm=0 / deadzone=21,11 / fast_pskip=1 / chroma_qp_offset=-3 / threads=6 / lookahead_threads=1 / sliced_threads=0 / nr=0 / decimate=0 / interlaced=0 / bluray_compat=0 / constrained_intra=0 / bframes=12 / b_pyramid=2 / b_adapt=2 / b_bias=0 / direct=3 / weightb=1 / open_gop=0 / weightp=2 / keyint=250 / keyint_min=23 / scenecut=40 / intra_refresh=0 / rc=2pass / mbtree=0 / bitrate=4140 / ratetol=1.0 / qcomp=0.60 / qpmin=0 / qpmax=69 / qpstep=4 / cplxblur=20.0 / qblur=0.5 / ip_ratio=1.40 / pb_ratio=1.30 / aq=1:1.00Language : EnglishDefault : YesForced : No
AudioID : 2Format : AC-3Format/Info : Audio Coding 3Mode extension : CM (complete main)Format settings, Endianness : BigCodec ID : A_AC3Duration : 50mn 57sBit rate mode : ConstantBit rate : 448 KbpsChannel(s) : 6 channelsChannel positions : Front: L C R, Side: L R, LFESampling rate : 48.0 KHzBit depth : 16 bitsCompression mode : LossyDelay relative to video : 66msStream size : 163 MiB (10%)Language : RussianDefault : YesForced : No

x264 log

---[Information] [02.04.2015 17:12:57] raw [info]: 1280x720p 1:1 @ 25/1 fps (cfr)
---[Information] [02.04.2015 17:12:57] x264 [info]: using SAR=1/1
---[Information] [02.04.2015 17:12:57] x264 [info]: using cpu capabilities: MMX2 SSE2Fast SSSE3 SSE4.2
---[Information] [02.04.2015 17:12:57] x264 [info]: profile Main, level 4.1
---[Information] [02.04.2015 17:52:45] x264 [info]: frame I:383 Avg QP:14.94 size:123428
---[Information] [02.04.2015 17:52:45] x264 [info]: frame P:20967 Avg QP:16.72 size: 45121
---[Information] [02.04.2015 17:52:45] x264 [info]: frame B:55087 Avg QP:18.46 size: 10976
---[Information] [02.04.2015 17:52:45] x264 [info]: consecutive B-frames: 2.5% 5.8% 5.6% 75.0% 4.6% 4.3% 0.7% 1.2% 0.1% 0.0% 0.0% 0.1% 0.0%
---[Information] [02.04.2015 17:52:45] x264 [info]: mb I I16..4: 22.5% 0.0% 77.5%
---[Information] [02.04.2015 17:52:45] x264 [info]: mb P I16..4: 24.8% 0.0% 0.0% P16..4: 68.2% 0.0% 0.0% 0.0% 0.0% skip: 7.0%
---[Information] [02.04.2015 17:52:45] x264 [info]: mb B I16..4: 4.3% 0.0% 0.0% B16..8: 25.7% 0.0% 0.0% direct:18.6% skip:51.4% L0:27.0% L1:39.3% BI:33.7%
---[Information] [02.04.2015 17:52:45] x264 [info]: final ratefactor: 17.98
---[Information] [02.04.2015 17:52:45] x264 [info]: direct mvs spatial:98.8% temporal:1.2%
---[Information] [02.04.2015 17:52:45] x264 [info]: coded y,uvDC,uvAC intra: 77.3% 64.7% 35.1% inter: 28.6% 20.0% 4.9%
---[Information] [02.04.2015 17:52:45] x264 [info]: i16 v,h,dc,p: 32% 24% 31% 14%
---[Information] [02.04.2015 17:52:45] x264 [info]: i4 v,h,dc,ddl,ddr,vr,hd,vl,hu: 22% 21% 12% 7% 8% 7% 8% 7% 8%
---[Information] [02.04.2015 17:52:45] x264 [info]: i8c dc,h,v,p: 54% 19% 22% 4%
---[Information] [02.04.2015 17:52:45] x264 [info]: Weighted P-Frames: Y:11.7% UV:7.3%
---[Information] [02.04.2015 17:52:45] x264 [info]: kb/s:4181.13
[Профиль] [ЛС]
Показать сообщения:    

Текущее время: Сегодня 17:42

Часовой пояс: GMT



Вы не можете начинать темы
Вы не можете отвечать на сообщения
Вы не можете редактировать свои сообщения
Вы не можете удалять свои сообщения
Вы не можете голосовать в опросах
Вы не можете прикреплять файлы к сообщениям
Вы не можете скачивать файлы