Картина (Григорий Козлов) [1965 г., мультфильм, DVB]

 
Автор Сообщение

TorrentFilm ®

Пол:

Стаж: 2 года

Сообщений: 7741



Награды: Нет

Торрент-статистика

Создавать темы 02-Янв-2016 00:05

[Цитировать]

Картина
Жанр: мультфильм
Год выпуска: 1965
Продолжительность: 00:08:36
Режиссёр: Григорий Козлов
Описание: мультфильм о том, как свинья, вывалявшись в грязи оставляет на заборе грязное пятно. Обитатели скотного двора, выдают свинью за великую художницу, а грязь на заборе за новаторское произведение искусства, и возмущаются, когда маляр закрашивает забор краской ...
Доп. информация: по мотивам одноименной сказки А.Толстого

Трансляция спутникового канала: "Карусель"
Качество видео: DVB
Формат видео: MPEG-PS
Видео: MPEG2 Video, 720x576, 25 fps, 3900 kbps
Аудио: MPEG Audio, 2 сh, 48 kHz, 192 kbps

MediaInfo

General
Complete name : D:\Картина. (1965)_DVB by SLuMeP.mpg
Format : MPEG-PS
File size : 260 MiB
Duration : 8mn 36s
Overall bit rate mode : Variable
Overall bit rate : 4 214 Kbps
Video
ID : 224 (0xE0)
Format : MPEG Video
Format version : Version 2
Format profile : Main@Main
Format settings, BVOP : Yes
Format settings, Matrix : Custom
Format settings, GOP : M=3, N=12
Duration : 8mn 36s
Bit rate mode : Variable
Bit rate : 3 938 Kbps
Maximum bit rate : 5 000 Kbps
Width : 720 pixels
Height : 576 pixels
Display aspect ratio : 4:3
Frame rate : 25.000 fps
Standard : PAL
Color space : YUV
Chroma subsampling : 4:2:0
Bit depth : 8 bits
Scan type : Interlaced
Scan order : Top Field First
Compression mode : Lossy
Bits/(Pixel*Frame) : 0.380
Time code of first frame : 00:00:00:00
Time code source : Group of pictures header
Stream size : 243 MiB (93%)
Audio
ID : 192 (0xC0)
Format : MPEG Audio
Format version : Version 1
Format profile : Layer 2
Duration : 8mn 36s
Bit rate mode : Constant
Bit rate : 192 Kbps
Channel(s) : 2 channels
Sampling rate : 48.0 KHz
Compression mode : Lossy
Stream size : 11.8 MiB (5%)

Скриншоты

[Профиль] [ЛС]
Кто просматривает тему:

Форум Тема Автор Размер
Наши клипы Dara - Картина Маслом (2014) HDTV [H.264/1080p-LQ] sergej644 212 MB
R.G.TorrentFilm Video В центре внимания / Spotlight (Том МакКарти / Tom McCarthy) [2015, США, Канада, Триллер, драма, биография, история, HDRip] MVO (iTunes) Один 777 778 MB
Фильмы 2014 года Дом / Home / At the Devil\'s Door (Николас МакКарти / Nicholas McCarthy) [2014, США, ужасы, BDRip ] VO (Хихидок) TorrentFilm 1.48 GB
Фильмы 2014 года Дом / Home / At the Devil\'s Door (Николас МакКарти / Nicholas McCarthy) [2014, США, ужасы, WEB-DLRip] VO (Хихидок) reversefile 740 MB
Отечественные мультфильмы Знакомые картинки (Евгений Мигунов) [1957, СССР, сатира, DVB] TorrentFilm 204 MB
Боевики, детективы, триллеры Картина без Иосифа (Джордж Элизабет) [2015, Полицейский детектив, аудиокнига, MP3, 96 kbps, Броцкая Леонтина] Magnat 892 MB
R.G.TorrentFilm Video Легендарные лемуры Мадагаскара / Madagascar's Legendary Lemurs (Вероника Маккарти / Veronica McCarthy) [2015 г., Документальный, HDTVRip] Один 777 598 MB
Фильмы (HD Rips | 720p, 1080p) Любовь в словах и картинах / Любовь в словах и картинках / Words and Pictures (2013) HDRip | Dub Белочка 1.45 GB
Показать сообщения:    

Текущее время: Сегодня 10:16

Часовой пояс: GMT



Вы не можете начинать темы
Вы не можете отвечать на сообщения
Вы не можете редактировать свои сообщения
Вы не можете удалять свои сообщения
Вы не можете голосовать в опросах
Вы не можете прикреплять файлы к сообщениям
Вы не можете скачивать файлы