Карпов. Сезон второй / Сезон: 2 / Серии: 1-30 из 30 (Иван Щёголев, Сергей Лесогоров) [2013 г., Детектив, криминальный фильм, драма, SATRip]

 
Автор Сообщение

sergej644 ®

Пол:

Стаж: 4 года 11 месяцев

Сообщений: 6046

Откуда: Soviet Union



Награды: Нет

Торрент-статистика

Создавать темы 20-Авг-2014 20:12

[Цитировать]

-Карпов. Сезон второй.Серии: 1-30 из 30--Производство: Телекомпания ООО "DIXI TV" по заказу НТВ, ООО "Фильм 232", Россия
Жанр: Детектив, криминальный фильм, драма
Год выпуска: 2013 г.
Продолжительность: 30 x ~ 00:44:06
Мировая премьера: 23 сентября 2013
Российская премьера: 23 сентября 2013
Режиссер: Иван Щёголев, Сергей Лесогоров-
Владислав Котлярский, Степан Рожнов, Николай Козак, Анна Михайловская, Максим Щёголев, Юлия Майборода, Андрей Сорока, Виктория Тарасова, Дмитрий Мазуров, Тимур Ефременков, Дмитрий Блажко, Денис Рожков, Ева Авеева, Мария Болонкина, Владимир Фекленко, Владимир Яковлев, Мария Рассказова, Татьяна Исаева, Анатолий Петров, Екатерина Маликова, Наталья Гудкова, Мария Болтнева, Александр Бобров, Александр Касаткин, Ольга Шеховцова, Валерий Новиков, Александр Павленко, Олег Евтеев, Екатерина Шмакова, Анастасия Маринина-
Во второй части сериала бывшему полковнику Карпову предстоит пережить тяжелую потерю. Это событие определит ход событий всего сезона. Чтобы докопаться до истины, бывший начальник криминальной полиции «Пятницкого» устроится на работу к политику, претендующему на пост мэра подмосковного города. Карпов окунется в жестокий мир предвыборной гонки, полный дрязг, интриг, а главное – тайн. И чем больше он будет узнавать, тем больше будет понимать, что правда от него все дальше. Под влиянием обстоятельств герои сериала сильно изменятся. Так робкая Света станет жесткой бизнес-леди, Иващук, наоборот, «покатится вниз», а Зотов проявит себя с неожиданной стороны. Но самое главное во втором сезоне «Карпова» зрителям предстоит встреча с легендарными героями «Глухаря»: бесшабашным Денисом Антошиным, принципиальным Колей Тарасовым, наивным, но добрым Агаповым, а также строгой, но справедливой Ириной Зиминой. Вторая часть сериала докажет Карпову простую истину – очевидное, не значит настоящее. Десятки раз бывший полковник будет идти по ложному пути, пока, наконец, не придет к разгадке своей личной трагедии. И развязка сезона, несомненно, шокирует каждого.-
Качество видео: SATRip
Контейнер: AVI
Видео кодек: XviD
Аудио кодек: MP3
Видео: 720x448 (1.61:1), 25 fps, XviD MPEG-4 ~1643 kbps avg, 0.20 bit/pixel
Аудио: 48 kHz, MPEG Layer 3, 2 ch, ~128.00 kbps avg
Cубтитры: отсутствуют

Media Info

Общее
Полное имя : D:\Karpov.Vtoroy.Sezon.2013.XviD.SATRip\Karpov.Vtoroy.Sezon.(01.serija).2013.XviD.SATRip.avi
Формат : AVI
Формат/Информация : Audio Video Interleave
Размер файла : 563 Мбайт
Продолжительность : 44 м.
Общий поток : 1781 Кбит/сек
Библиотека кодирования : VirtualDub build 34807/release
Видео
Идентификатор : 0
Формат : MPEG-4 Visual
Профиль формата : Advanced Simple@L5
Параметр BVOP формата : 2
Параметр QPel формата : Нет
Параметр GMC формата : Без точки перехода
Параметр матрицы формата : Default (H.263)
Режим смешивания : Сжатый битовый поток
Идентификатор кодека : XVID
Идентификатор кодека/Подсказка : XviD
Продолжительность : 44 м.
Битрейт : 1644 Кбит/сек
Ширина : 720 пикселей
Высота : 448 пикселей
Соотношение сторон : 1,607
Частота кадров : 25,000 кадров/сек
Цветовое пространство : YUV
Субдискретизация насыщенности : 4:2:0
Битовая глубина : 8 бит
Тип развёртки : Прогрессивная
Метод сжатия : С потерями
Бит/(Пиксели*Кадры) : 0.204
Размер потока : 519 Мбайт (92%)
Библиотека кодирования : XviD 64
Аудио
Идентификатор : 1
Формат : MPEG Audio
Версия формата : Version 1
Профиль формата : Layer 3
Режим : Joint stereo
Расширение режима : MS Stereo
Идентификатор кодека : 55
Идентификатор кодека/Подсказка : MP3
Продолжительность : 44 м.
Вид битрейта : Постоянный
Битрейт : 128 Кбит/сек
Каналы : 2 канала
Частота : 48,0 КГц
Метод сжатия : С потерями
Размер потока : 40,4 Мбайт (7%)
Выравнивание : Разделение по промежуткам
Продолжительность промежутка : 40 мс. (1,00 видеокадр)
Время предзагрузки промежутка : 500 мс.

Скриншот c названием фильма

Скриншоты

Раздача ведётся путём добавления новых серий

Внимание! Раздача ведётся путём добавления новых серий; при каждом добавлении создаётся новый торрент. Чтобы начать докачку новой серии, пользователям необходимо сделать следующее:
(1) остановить скачивание,
(2) удалить старый торрент у себя из клиента (старые серии удалять не надо),
(3) скачать новый торрент и запустить его у себя в клиенте вместо старого, при этом указать клиенту путь в старую папку куда и должно происходить скачивание новых серий.
Ваш клиент при этом должен произвести хеширование (проверку) старой папки (если не производит сам - помогите ему сделать это), и будет докачивать только те серии которых у вас ещё нет. Старые серии при этом не удаляются, а продолжают раздаваться!
Eсли вы уже удалили старые серии, то предотвратить повторную закачку старых серий можно, отжав галочку в соответствующих местах при запуске нового торрента. По возможности, желательно не удалять старые серии как можно дольше чтобы релизёр не столько продолжал раздавать старые серии, а смог сконцентрироваться на новых.
[Профиль] [ЛС]
Кто просматривает тему:

Форум Тема Автор Размер
Фильмы 2015 года Безумный Макс: Дорога ярости / Mad Max: Fury Road (Джордж Миллер / George Miller) [2015 г., Австралия, США, Боевик, BDRip] AVO (Карповский) TorrentFilm 2.18 GB
Фильмы 2015 года Безумный Макс: Дорога ярости / Mad Max: Fury Road (Джордж Миллер / George Miller) [2015, Австралия, США, боевик, фантастика, приключения, HDRip] AVO (антон карповский) TorrentFilm 1.36 GB
Фильмы 2015 года Безумный Макс: Дорога ярости / Mad Max: Fury Road (Джордж Миллер / George Miller) [2015, Австралия, США, Футуристическая драма, фантастика, приключения, BDRip] AVO (А. Карповский) TorrentFilm 1.46 GB
Фильмы 2011 года Бирюзовая роза / Turquoise Rose (Трэвис Холт Хэмилтон / Travis Holt Hamilton) [2007, США, Драма, DVDRip] AVO (Карповский) TorrentFilm 1.37 GB
История, биографии, религия и искусство Владимир Карпов - Дальше Кушки не пошлют (2015) MP3 Swager 258 MB
Фильмы 2011 года Водопад Ангела / Водопад Серафима / Seraphim Falls (Дэвид Фон Энкен / David Von Ancken) [2006, США, триллер, драма, вестерн, военный, BDRip-AVC] 2x MVO + AVO (Карповский) + Original (Eng) + Sub (Rus,... TorrentFilm 4.41 GB
Фильмы 2011 года Вся королевская рать / All the King\'s Men (Стивен Зэйллян / Steven Zaillian) [2006, Германия, США, триллер, драма, HDRip] AVO (Карповский) TorrentFilm 1.47 GB
Фильмы 2006-2008 года Игра по-крупному / War, Inc. (Джошуа Сэфтел / Joshua Seftel) [2008 г., США, Триллер, Комедия, HDRip] AVO (Карповский) painkiller 1.46 GB
Показать сообщения:    

Текущее время: Сегодня 10:16

Часовой пояс: GMT



Вы не можете начинать темы
Вы не можете отвечать на сообщения
Вы не можете редактировать свои сообщения
Вы не можете удалять свои сообщения
Вы не можете голосовать в опросах
Вы не можете прикреплять файлы к сообщениям
Вы не можете скачивать файлы