Карнавал по-нашему (Леонид Мазор) [2014, Россия, Комедия, музыкальный фильм, HDTV 1080i]

 
Автор Сообщение

reversefile ®

Пол:

Стаж: 4 года 5 месяцев

Сообщений: 842

Откуда: ReverseFile.org



Награды: Нет

Торрент-статистика

Создавать темы 13-Авг-2014 18:26

[Цитировать]

Карнавал по-нашему
Год выпуска: 2014
Производство: Россия, "Единая медиа группа"
Жанр: Комедия, музыкальный фильм
Продолжительность: 00:45:00
Субтитры: нет
Режиссёр:Леонид Мазор
В ролях: Александр Асташёнок, Татьяна Рыбинец, Валерий Афанасьев, Ирина Бякова, Анатолий Калмыков
Описание: История о молодом человеке, живущем в городском мире, со своими законами и увлечениями. Эти «увлечения» приводят героя к ситуации, когда жизнь становится дороже любых приключений. Случайная встреча с простой сельской девушкой в корне меняет всю его жизнь.
Главную роль в ленте играет Александр Асташенок - российский музыкант, актер, бывший солист группы "Корни" и победитель первой "Фабрики Звезд".

Качество: HDTV 1080i
Формат: TS
Видео кодек: H.264
Аудио кодек: MP2
Видео: MPEG4 Video (H264) 1920x1080, ~ 7930 Кбит/с, 25.00fps 0.153 bit/pixel
Аудио: MP2, 2 канала, 48,0 КГц, ~256 kbps
Сторонней рекламы нет!

MI

Общее
Идентификатор : 1 (0x1)
Полное имя : H:\Карнавал по-нашему HDTV 1080i\Карнавал по-нашему 02_серия_HDTV_1080i.ts
Формат : MPEG-TS
Размер файла : 2,63 Гбайт
Продолжительность : 43 м.
Общий поток : 8615 Кбит/сек
Максимальный общий битрейт : 35,5 Мбит/сек
Видео
Идентификатор : 4113 (0x1011)
Идентификатор меню : 1 (0x1)
Формат : AVC
Формат/Информация : Advanced Video Codec
Профиль формата : High@L4.0
Параметр CABAC формата : Да
Параметр ReFrames формата : 4
Идентификатор кодека : 27
Продолжительность : 43 м.
Вид битрейта : Переменный
Битрейт : 7930 Кбит/сек
Максимальный битрейт : 40,0 Мбит/сек
Ширина : 1920 пикс.
Высота : 1080 пикс.
Соотношение сторон : 16:9
Частота кадров : 25,000 кадр/сек
Цветовое пространство : YUV
Подвыборка цветности : 4:2:0
Битовая глубина : 8 бит
Тип развёртки : MBAFFБит/(Пиксели*Кадры) : 0.153
Размер потока : 2,42 Гбайт (92%)
Аудио
Идентификатор : 4352 (0x1100)
Идентификатор меню : 1 (0x1)
Формат : MPEG Audio
Версия формата : Version 1
Профиль формата : Layer 2
Идентификатор кодека : 4
Продолжительность : 43 м.
Вид битрейта : Постоянный
Битрейт : 256 Кбит/сек
Каналы : 2 канала
Частота : 48,0 КГц
Метод сжатия : С потерями
Размер потока : 79,9 Мбайт (3%)
Язык : Russian
Раздача группы:
Отдельное спасибо nikolspup за предоставление материала.

Скриншоты

[Профиль] [ЛС]
Показать сообщения:    

Текущее время: Сегодня 17:41

Часовой пояс: GMT



Вы не можете начинать темы
Вы не можете отвечать на сообщения
Вы не можете редактировать свои сообщения
Вы не можете удалять свои сообщения
Вы не можете голосовать в опросах
Вы не можете прикреплять файлы к сообщениям
Вы не можете скачивать файлы