Карнавальная ночь (Эльдар Рязанов) [1956, СССР, Комедия, музыкальный фильм.,Blu ray > DVD5 (Custom)] + Sub Rus+Eng + Original Rus(AC3 5.1;AC3 2.0;AC3 1.0)

 
Автор Сообщение

TorrentFilm ®

Пол:

Стаж: 2 года

Сообщений: 7741



Награды: Нет

Торрент-статистика

Создавать темы 01-Янв-2016 00:21

[Цитировать]

Карнавальная ночь Страна: СССР
Студия: Мосфильм
Жанр: Комедия, музыкальный фильм.
Год выпуска: 1956
Продолжительность: 01:12:25
Перевод: Не требуется
Cубтитры: русские,английские.
Оригинальная аудиодорожка: русский
Режиссер: Эльдар Рязанов
В ролях: Игорь Ильинский, Людмила Гурченко, Юрий Белов, Георгий Куликов, Сергей Филиппов, Ольга Власова, Андрей Тутышкин, Тамара Носова, Геннадий Юдин, Владимир Зельдин.
Описание: Работники Дома Культуры готовятся к ежегодному мероприятию — костюмированному Новогоднему карнавалу. Развлекательная программа включает в себя сольные, танцевальные, цирковые номера, выступление джазового оркестра, выступления фокусника и клоунов. Товарищ Огурцов, назначенный исполняющим обязанности директора ДК, ознакомившись с программой, не одобрил её, поскольку, как он считает, всё должно быть проведено на высоком уровне и «главное — сурьёзно!». Он предлагает свою программу, предусматривающую выступление докладчика и лектора-астронома. Из музыкальных номеров он предлагает ограничиться классической музыкой и выступлением ансамбля «Песни и пляски».
Никто из работников Дома Культуры не захотел изменять ранее составленную и отрепетированную программу, тем более заменять её на столь скучное и сухое мероприятие. Они объединяют усилия и делают всё возможное, чтобы помешать осуществлению планов Огурцова. Прибегая к разным уловкам, отвлекая и вводя Огурцова в заблуждение, они один за другим исполняют все намеченные ранее развлекательные номера и весело празднуют наступление Нового Года.
Доп. информация:Полная реставрация изображения и звука. Исходные киноматериалы подготовлены Госфильмофондом России. Покадровая цифровая реставрация изображения, ремастеринг звука и авторинг проведены объединением «Крупный план».Релиз группы: Меню: на русском / частично анимированное / озвученное.
Сэмпл: http://www.sendspace.com/file/1l4in7
Тип релиза: DVD5 (Custom)
Контейнер: DVD-Video
Видео: MPEG Video,PAL,720*576,VBR,4:3,6842 Кбит/сек,25 Кбит/сек
Аудио: Русский AC3,6 каналов, 48,0 КГц, 448 Кбит/сек
Аудио 2: Русский AC3,2 канала, 48,0 КГц, 448 Кбит/сек
Аудио 3: Русский AC3,1 канал, 48,0 КГц, 192 Кбит/сек
Формат субтитров: prerendered (DVD/IDX+SUB)
Источник- Blu-Ray. БОЛЬШОЕ СПАСИБО ЗА НЕГО Fil_p.
MediaInfoОбщее
Полное имя : F:\Сохраненные фильмы\Мои_раздачи_BD_DVD\Карнавальная_ночь_1956г_Blu_ray_DVD5\VIDEO_TS\VIDEO_TS.BUP
Формат : DVD Video
Профиль формата : Menu
Размер файла : 12,0 Кбайт
Режим общего битрейта : Переменный
Видео
Идентификатор : 224 (0xE0)
Формат : MPEG Video
Версия формата : Version 2
Вид битрейта : Переменный
Ширина : 720 пикселей
Высота : 576 пикселей
Соотношение сторон : 4:3
Частота кадров : 25,000 кадров/сек
Стандарт вещания : PAL
Метод сжатия : С потерями
Общее
Полное имя : F:\Сохраненные фильмы\Мои_раздачи_BD_DVD\Карнавальная_ночь_1956г_Blu_ray_DVD5\VIDEO_TS\VIDEO_TS.IFO
Формат : DVD Video
Профиль формата : Menu
Размер файла : 12,0 Кбайт
Режим общего битрейта : Переменный
Видео
Идентификатор : 224 (0xE0)
Формат : MPEG Video
Версия формата : Version 2
Вид битрейта : Переменный
Ширина : 720 пикселей
Высота : 576 пикселей
Соотношение сторон : 4:3
Частота кадров : 25,000 кадров/сек
Стандарт вещания : PAL
Метод сжатия : С потерями
Общее
Полное имя : F:\Сохраненные фильмы\Мои_раздачи_BD_DVD\Карнавальная_ночь_1956г_Blu_ray_DVD5\VIDEO_TS\VIDEO_TS.VOB
Формат : MPEG-PS
Размер файла : 48,0 Кбайт
Продолжительность : 40 мс.
Режим общего битрейта : Переменный
Общий поток : 9830 Кбит/сек
Видео
Идентификатор : 224 (0xE0)
Формат : MPEG Video
Версия формата : Version 2
Профиль формата : Main@Main
Параметр BVOP формата : Нет
Параметр матрицы формата : По умолчанию
Продолжительность : 40 мс.
Вид битрейта : Переменный
Максимальный битрейт : 9000 Кбит/сек
Ширина : 720 пикселей
Высота : 576 пикселей
Соотношение сторон : 4:3
Частота кадров : 25,000 кадров/сек
Стандарт вещания : PAL
Цветовое пространство : YUV
Субдискретизация насыщенности : 4:2:0
Битовая глубина : 8 бит
Тип развёртки : Прогрессивная
Порядок развёртки : Верхнее поле первое
Метод сжатия : С потерями
Основные цвета : BT.470-2 System B, BT.470-2 System G
Характеристики трансфера : BT.470-2 System B, BT.470-2 System G
Коэффициенты матрицы : BT.470-2 System B, BT.470-2 System G
Меню
Общее
Полное имя : F:\Сохраненные фильмы\Мои_раздачи_BD_DVD\Карнавальная_ночь_1956г_Blu_ray_DVD5\VIDEO_TS\VTS_01_0.BUP
Формат : DVD Video
Профиль формата : Program
Размер файла : 50,0 Кбайт
Продолжительность : 1 ч. 12 м.
Режим общего битрейта : Переменный
Общий поток : 94 бит/сек
Видео
Идентификатор : 224 (0xE0)
Формат : MPEG Video
Версия формата : Version 2
Продолжительность : 1 ч. 12 м.
Вид битрейта : Переменный
Ширина : 720 пикселей
Высота : 576 пикселей
Соотношение сторон : 4:3
Частота кадров : 25,000 кадров/сек
Стандарт вещания : PAL
Метод сжатия : С потерями
Аудио #1
Идентификатор : 128 (0x80)
Формат : AC-3
Формат/Информация : Audio Coding 3
Продолжительность : 1 ч. 12 м.
Каналы : 6 каналов
Частота : 48,0 КГц
Метод сжатия : С потерями
Язык : Russian
Аудио #2
Идентификатор : 129 (0x81)
Формат : AC-3
Формат/Информация : Audio Coding 3
Продолжительность : 1 ч. 12 м.
Каналы : 2 канала
Частота : 48,0 КГц
Метод сжатия : С потерями
Язык : Russian
Аудио #3
Идентификатор : 130 (0x82)
Формат : AC-3
Формат/Информация : Audio Coding 3
Продолжительность : 1 ч. 12 м.
Каналы : 1 канал
Частота : 48,0 КГц
Метод сжатия : С потерями
Язык : Russian
Текст #1
Идентификатор : 32 (0x20)
Формат : RLE
Формат/Информация : Run-length encoding
Битовая глубина : 2 бит
Язык : Russian
Текст #2
Идентификатор : 33 (0x21)
Формат : RLE
Формат/Информация : Run-length encoding
Битовая глубина : 2 бит
Язык : English
Меню
Продолжительность : 1 ч. 12 м.
00:00:00.000 : Chapter 1
00:07:38.120 : Chapter 2
00:14:38.880 : Chapter 3
00:22:00.760 : Chapter 4
00:27:11.960 : Chapter 5
00:33:25.200 : Chapter 6
00:38:23.560 : Chapter 7
00:43:31.800 : Chapter 8
00:49:35.600 : Chapter 9
00:54:56.440 : Chapter 10
01:00:55.400 : Chapter 11
01:07:19.840 : Chapter 12
List (Audio) : 0 / 1 / 2
List (Subtitles 4/3) : 0 / 1
List (Subtitles Wide) : 0 / 1
List (Subtitles Letterbox) : 0 / 1
List (Subtitles Pan&Scan) : 0 / 1
Общее
Полное имя : F:\Сохраненные фильмы\Мои_раздачи_BD_DVD\Карнавальная_ночь_1956г_Blu_ray_DVD5\VIDEO_TS\VTS_01_0.IFO
Формат : DVD Video
Профиль формата : Program
Размер файла : 50,0 Кбайт
Продолжительность : 1 ч. 12 м.
Режим общего битрейта : Переменный
Общий поток : 94 бит/сек
Видео
Идентификатор : 224 (0xE0)
Формат : MPEG Video
Версия формата : Version 2
Продолжительность : 1 ч. 12 м.
Вид битрейта : Переменный
Ширина : 720 пикселей
Высота : 576 пикселей
Соотношение сторон : 4:3
Частота кадров : 25,000 кадров/сек
Стандарт вещания : PAL
Метод сжатия : С потерями
Аудио #1
Идентификатор : 128 (0x80)
Формат : AC-3
Формат/Информация : Audio Coding 3
Продолжительность : 1 ч. 12 м.
Каналы : 6 каналов
Частота : 48,0 КГц
Метод сжатия : С потерями
Язык : Russian
Аудио #2
Идентификатор : 129 (0x81)
Формат : AC-3
Формат/Информация : Audio Coding 3
Продолжительность : 1 ч. 12 м.
Каналы : 2 канала
Частота : 48,0 КГц
Метод сжатия : С потерями
Язык : Russian
Аудио #3
Идентификатор : 130 (0x82)
Формат : AC-3
Формат/Информация : Audio Coding 3
Продолжительность : 1 ч. 12 м.
Каналы : 1 канал
Частота : 48,0 КГц
Метод сжатия : С потерями
Язык : Russian
Текст #1
Идентификатор : 32 (0x20)
Формат : RLE
Формат/Информация : Run-length encoding
Битовая глубина : 2 бит
Язык : Russian
Текст #2
Идентификатор : 33 (0x21)
Формат : RLE
Формат/Информация : Run-length encoding
Битовая глубина : 2 бит
Язык : English
Меню
Продолжительность : 1 ч. 12 м.
00:00:00.000 : Chapter 1
00:07:38.120 : Chapter 2
00:14:38.880 : Chapter 3
00:22:00.760 : Chapter 4
00:27:11.960 : Chapter 5
00:33:25.200 : Chapter 6
00:38:23.560 : Chapter 7
00:43:31.800 : Chapter 8
00:49:35.600 : Chapter 9
00:54:56.440 : Chapter 10
01:00:55.400 : Chapter 11
01:07:19.840 : Chapter 12
List (Audio) : 0 / 1 / 2
List (Subtitles 4/3) : 0 / 1
List (Subtitles Wide) : 0 / 1
List (Subtitles Letterbox) : 0 / 1
List (Subtitles Pan&Scan) : 0 / 1
Общее
Полное имя : F:\Сохраненные фильмы\Мои_раздачи_BD_DVD\Карнавальная_ночь_1956г_Blu_ray_DVD5\VIDEO_TS\VTS_01_0.VOB
Формат : MPEG-PS
Размер файла : 71,8 Мбайт
Продолжительность : 38 с.
Режим общего битрейта : Переменный
Общий поток : 15,5 Мбит/сек
Видео
Идентификатор : 224 (0xE0)
Формат : MPEG Video
Версия формата : Version 2
Профиль формата : Main@Main
Параметр BVOP формата : Да
Параметр матрицы формата : По умолчанию
Параметр GOP формата : M=3, N=12
Продолжительность : 29 с.
Вид битрейта : Переменный
Битрейт : 14,7 Мбит/сек
Максимальный битрейт : 4500 Кбит/сек
Ширина : 720 пикселей
Высота : 576 пикселей
Соотношение сторон : 16:9
Частота кадров : 25,000 кадров/сек
Стандарт вещания : PAL
Цветовое пространство : YUV
Субдискретизация насыщенности : 4:2:0
Битовая глубина : 8 бит
Тип развёртки : Прогрессивная
Метод сжатия : С потерями
Бит/(Пиксели*Кадры) : 1.419
Размер потока : 51,6 Мбайт (72%)
Основные цвета : BT.470-2 System B, BT.470-2 System G
Характеристики трансфера : BT.470-2 System B, BT.470-2 System G
Коэффициенты матрицы : BT.470-2 System B, BT.470-2 System G
Аудио
Идентификатор : 189 (0xBD)-128 (0x80)
Формат : AC-3
Формат/Информация : Audio Coding 3
Расширение режима : CM (complete main)
Параметр Endianness формата : Big
Режим смешивания : DVD-Video
Продолжительность : 38 с.
Вид битрейта : Постоянный
Битрейт : 448 Кбит/сек
Каналы : 2 канала
Расположение каналов : Front: L R
Частота : 48,0 КГц
Битовая глубина : 16 бит
Метод сжатия : С потерями
Размер потока : 2,08 Мбайт (3%)
Текст #1
Идентификатор : 189 (0xBD)-32 (0x20)
Формат : RLE
Формат/Информация : Run-length encoding
Режим смешивания : DVD-Video
Продолжительность : 256 мс.
Текст #2
Идентификатор : 189 (0xBD)-33 (0x21)
Формат : RLE
Формат/Информация : Run-length encoding
Режим смешивания : DVD-Video
Продолжительность : 256 мс.
Текст #3
Идентификатор : 189 (0xBD)-34 (0x22)
Формат : RLE
Формат/Информация : Run-length encoding
Режим смешивания : DVD-Video
Продолжительность : 192 мс.
Меню
Общее
Полное имя : F:\Сохраненные фильмы\Мои_раздачи_BD_DVD\Карнавальная_ночь_1956г_Blu_ray_DVD5\VIDEO_TS\VTS_01_1.VOB
Формат : MPEG-PS
Размер файла : 1000 Мбайт
Продолжительность : 19 м.
Режим общего битрейта : Переменный
Общий поток : 7135 Кбит/сек
Видео
Идентификатор : 224 (0xE0)
Формат : MPEG Video
Версия формата : Version 2
Профиль формата : Main@Main
Параметр BVOP формата : Да
Параметр матрицы формата : Выборочная
Продолжительность : 19 м.
Вид битрейта : Переменный
Битрейт : 5905 Кбит/сек
Максимальный битрейт : 8750 Кбит/сек
Ширина : 720 пикселей
Высота : 576 пикселей
Соотношение сторон : 4:3
Частота кадров : 25,000 кадров/сек
Стандарт вещания : PAL
Цветовое пространство : YUV
Субдискретизация насыщенности : 4:2:0
Битовая глубина : 8 бит
Тип развёртки : Чересстрочная
Порядок развёртки : Верхнее поле первое
Метод сжатия : С потерями
Бит/(Пиксели*Кадры) : 0.570
Размер потока : 828 Мбайт (83%)
Аудио #1
Идентификатор : 189 (0xBD)-128 (0x80)
Формат : AC-3
Формат/Информация : Audio Coding 3
Расширение режима : CM (complete main)
Параметр Endianness формата : Big
Режим смешивания : DVD-Video
Продолжительность : 19 м.
Вид битрейта : Постоянный
Битрейт : 448 Кбит/сек
Каналы : 6 каналов
Расположение каналов : Front: L C R, Side: L R, LFE
Частота : 48,0 КГц
Битовая глубина : 16 бит
Метод сжатия : С потерями
Размер потока : 62,8 Мбайт (6%)
Аудио #2
Идентификатор : 189 (0xBD)-129 (0x81)
Формат : AC-3
Формат/Информация : Audio Coding 3
Расширение режима : CM (complete main)
Параметр Endianness формата : Big
Режим смешивания : DVD-Video
Продолжительность : 19 м.
Вид битрейта : Постоянный
Битрейт : 448 Кбит/сек
Каналы : 2 канала
Расположение каналов : Front: L R
Частота : 48,0 КГц
Битовая глубина : 16 бит
Метод сжатия : С потерями
Размер потока : 62,8 Мбайт (6%)
Аудио #3
Идентификатор : 189 (0xBD)-130 (0x82)
Формат : AC-3
Формат/Информация : Audio Coding 3
Расширение режима : CM (complete main)
Параметр Endianness формата : Big
Режим смешивания : DVD-Video
Продолжительность : 19 м.
Вид битрейта : Постоянный
Битрейт : 192 Кбит/сек
Каналы : 1 канал
Расположение каналов : Front: C
Частота : 48,0 КГц
Битовая глубина : 16 бит
Метод сжатия : С потерями
Размер потока : 26,9 Мбайт (3%)
Текст
Идентификатор : 189 (0xBD)-33 (0x21)
Формат : RLE
Формат/Информация : Run-length encoding
Режим смешивания : DVD-Video
Продолжительность : 19 м.
Задержка видео : 7 с. 240 мс.
Меню
Общее
Полное имя : F:\Сохраненные фильмы\Мои_раздачи_BD_DVD\Карнавальная_ночь_1956г_Blu_ray_DVD5\VIDEO_TS\VTS_01_2.VOB
Формат : MPEG-PS
Размер файла : 1000 Мбайт
Продолжительность : 17 м.
Режим общего битрейта : Переменный
Общий поток : 8091 Кбит/сек
Видео
Идентификатор : 224 (0xE0)
Формат : MPEG Video
Версия формата : Version 2
Профиль формата : Main@Main
Параметр BVOP формата : Да
Параметр матрицы формата : Выборочная
Параметр GOP формата : M=3, N=15
Продолжительность : 17 м.
Вид битрейта : Переменный
Битрейт : 6842 Кбит/сек
Максимальный битрейт : 8750 Кбит/сек
Ширина : 720 пикселей
Высота : 576 пикселей
Соотношение сторон : 4:3
Частота кадров : 25,000 кадров/сек
Стандарт вещания : PAL
Цветовое пространство : YUV
Субдискретизация насыщенности : 4:2:0
Битовая глубина : 8 бит
Тип развёртки : Чересстрочная
Порядок развёртки : Верхнее поле первое
Метод сжатия : С потерями
Бит/(Пиксели*Кадры) : 0.660
Размер потока : 846 Мбайт (85%)
Аудио #1
Идентификатор : 189 (0xBD)-128 (0x80)
Формат : AC-3
Формат/Информация : Audio Coding 3
Расширение режима : CM (complete main)
Параметр Endianness формата : Big
Режим смешивания : DVD-Video
Продолжительность : 17 м.
Вид битрейта : Постоянный
Битрейт : 448 Кбит/сек
Каналы : 6 каналов
Расположение каналов : Front: L C R, Side: L R, LFE
Частота : 48,0 КГц
Битовая глубина : 16 бит
Метод сжатия : С потерями
Задержка видео : -328 мс.
Размер потока : 55,4 Мбайт (6%)
Аудио #2
Идентификатор : 189 (0xBD)-129 (0x81)
Формат : AC-3
Формат/Информация : Audio Coding 3
Расширение режима : CM (complete main)
Параметр Endianness формата : Big
Режим смешивания : DVD-Video
Продолжительность : 17 м.
Вид битрейта : Постоянный
Битрейт : 448 Кбит/сек
Каналы : 2 канала
Расположение каналов : Front: L R
Частота : 48,0 КГц
Битовая глубина : 16 бит
Метод сжатия : С потерями
Задержка видео : -328 мс.
Размер потока : 55,4 Мбайт (6%)
Аудио #3
Идентификатор : 189 (0xBD)-130 (0x82)
Формат : AC-3
Формат/Информация : Audio Coding 3
Расширение режима : CM (complete main)
Параметр Endianness формата : Big
Режим смешивания : DVD-Video
Продолжительность : 17 м.
Вид битрейта : Постоянный
Битрейт : 192 Кбит/сек
Каналы : 1 канал
Расположение каналов : Front: C
Частота : 48,0 КГц
Битовая глубина : 16 бит
Метод сжатия : С потерями
Задержка видео : -264 мс.
Размер потока : 23,7 Мбайт (2%)
Текст #1
Идентификатор : 189 (0xBD)-32 (0x20)
Формат : RLE
Формат/Информация : Run-length encoding
Режим смешивания : DVD-Video
Текст #2
Идентификатор : 189 (0xBD)-33 (0x21)
Формат : RLE
Формат/Информация : Run-length encoding
Режим смешивания : DVD-Video
Меню
Общее
Полное имя : F:\Сохраненные фильмы\Мои_раздачи_BD_DVD\Карнавальная_ночь_1956г_Blu_ray_DVD5\VIDEO_TS\VTS_01_3.VOB
Формат : MPEG-PS
Размер файла : 1000 Мбайт
Продолжительность : 16 м.
Режим общего битрейта : Переменный
Общий поток : 8663 Кбит/сек
Видео
Идентификатор : 224 (0xE0)
Формат : MPEG Video
Версия формата : Version 2
Профиль формата : Main@Main
Параметр BVOP формата : Да
Параметр матрицы формата : Выборочная
Параметр GOP формата : M=3, N=15
Продолжительность : 16 м.
Вид битрейта : Переменный
Битрейт : 7403 Кбит/сек
Максимальный битрейт : 8750 Кбит/сек
Ширина : 720 пикселей
Высота : 576 пикселей
Соотношение сторон : 4:3
Частота кадров : 25,000 кадров/сек
Стандарт вещания : PAL
Цветовое пространство : YUV
Субдискретизация насыщенности : 4:2:0
Битовая глубина : 8 бит
Тип развёртки : Чересстрочная
Порядок развёртки : Верхнее поле первое
Метод сжатия : С потерями
Бит/(Пиксели*Кадры) : 0.714
Размер потока : 854 Мбайт (85%)
Аудио #1
Идентификатор : 189 (0xBD)-128 (0x80)
Формат : AC-3
Формат/Информация : Audio Coding 3
Расширение режима : CM (complete main)
Параметр Endianness формата : Big
Режим смешивания : DVD-Video
Продолжительность : 16 м.
Вид битрейта : Постоянный
Битрейт : 448 Кбит/сек
Каналы : 6 каналов
Расположение каналов : Front: L C R, Side: L R, LFE
Частота : 48,0 КГц
Битовая глубина : 16 бит
Метод сжатия : С потерями
Задержка видео : -272 мс.
Размер потока : 51,7 Мбайт (5%)
Аудио #2
Идентификатор : 189 (0xBD)-129 (0x81)
Формат : AC-3
Формат/Информация : Audio Coding 3
Расширение режима : CM (complete main)
Параметр Endianness формата : Big
Режим смешивания : DVD-Video
Продолжительность : 16 м.
Вид битрейта : Постоянный
Битрейт : 448 Кбит/сек
Каналы : 2 канала
Расположение каналов : Front: L R
Частота : 48,0 КГц
Битовая глубина : 16 бит
Метод сжатия : С потерями
Задержка видео : -272 мс.
Размер потока : 51,7 Мбайт (5%)
Аудио #3
Идентификатор : 189 (0xBD)-130 (0x82)
Формат : AC-3
Формат/Информация : Audio Coding 3
Расширение режима : CM (complete main)
Параметр Endianness формата : Big
Режим смешивания : DVD-Video
Продолжительность : 16 м.
Вид битрейта : Постоянный
Битрейт : 192 Кбит/сек
Каналы : 1 канал
Расположение каналов : Front: C
Частота : 48,0 КГц
Битовая глубина : 16 бит
Метод сжатия : С потерями
Задержка видео : -208 мс.
Размер потока : 22,2 Мбайт (2%)
Текст #1
Идентификатор : 189 (0xBD)-33 (0x21)
Формат : RLE
Формат/Информация : Run-length encoding
Режим смешивания : DVD-Video
Продолжительность : 16 м.
Задержка видео : 280 мс.
Текст #2
Идентификатор : 189 (0xBD)-32 (0x20)
Формат : RLE
Формат/Информация : Run-length encoding
Режим смешивания : DVD-Video
Меню
Общее
Полное имя : F:\Сохраненные фильмы\Мои_раздачи_BD_DVD\Карнавальная_ночь_1956г_Blu_ray_DVD5\VIDEO_TS\VTS_01_4.VOB
Формат : MPEG-PS
Размер файла : 1000 Мбайт
Продолжительность : 16 м.
Режим общего битрейта : Переменный
Общий поток : 8290 Кбит/сек
Видео
Идентификатор : 224 (0xE0)
Формат : MPEG Video
Версия формата : Version 2
Профиль формата : Main@Main
Параметр BVOP формата : Да
Параметр матрицы формата : Выборочная
Параметр GOP формата : M=3, N=15
Продолжительность : 16 м.
Вид битрейта : Переменный
Битрейт : 7037 Кбит/сек
Максимальный битрейт : 8750 Кбит/сек
Ширина : 720 пикселей
Высота : 576 пикселей
Соотношение сторон : 4:3
Частота кадров : 25,000 кадров/сек
Стандарт вещания : PAL
Цветовое пространство : YUV
Субдискретизация насыщенности : 4:2:0
Битовая глубина : 8 бит
Тип развёртки : Чересстрочная
Порядок развёртки : Верхнее поле первое
Метод сжатия : С потерями
Бит/(Пиксели*Кадры) : 0.679
Размер потока : 849 Мбайт (85%)
Аудио #1
Идентификатор : 189 (0xBD)-128 (0x80)
Формат : AC-3
Формат/Информация : Audio Coding 3
Расширение режима : CM (complete main)
Параметр Endianness формата : Big
Режим смешивания : DVD-Video
Продолжительность : 16 м.
Вид битрейта : Постоянный
Битрейт : 448 Кбит/сек
Каналы : 6 каналов
Расположение каналов : Front: L C R, Side: L R, LFE
Частота : 48,0 КГц
Битовая глубина : 16 бит
Метод сжатия : С потерями
Задержка видео : -304 мс.
Размер потока : 54,0 Мбайт (5%)
Аудио #2
Идентификатор : 189 (0xBD)-129 (0x81)
Формат : AC-3
Формат/Информация : Audio Coding 3
Расширение режима : CM (complete main)
Параметр Endianness формата : Big
Режим смешивания : DVD-Video
Продолжительность : 16 м.
Вид битрейта : Постоянный
Битрейт : 448 Кбит/сек
Каналы : 2 канала
Расположение каналов : Front: L R
Частота : 48,0 КГц
Битовая глубина : 16 бит
Метод сжатия : С потерями
Задержка видео : -304 мс.
Размер потока : 54,0 Мбайт (5%)
Аудио #3
Идентификатор : 189 (0xBD)-130 (0x82)
Формат : AC-3
Формат/Информация : Audio Coding 3
Расширение режима : CM (complete main)
Параметр Endianness формата : Big
Режим смешивания : DVD-Video
Продолжительность : 16 м.
Вид битрейта : Постоянный
Битрейт : 192 Кбит/сек
Каналы : 1 канал
Расположение каналов : Front: C
Частота : 48,0 КГц
Битовая глубина : 16 бит
Метод сжатия : С потерями
Задержка видео : -176 мс.
Размер потока : 23,2 Мбайт (2%)
Текст #1
Идентификатор : 189 (0xBD)-32 (0x20)
Формат : RLE
Формат/Информация : Run-length encoding
Режим смешивания : DVD-Video
Задержка видео : 3 с. 40 мс.
Текст #2
Идентификатор : 189 (0xBD)-33 (0x21)
Формат : RLE
Формат/Информация : Run-length encoding
Режим смешивания : DVD-Video
Задержка видео : 2 с. 840 мс.
Меню
Общее
Полное имя : F:\Сохраненные фильмы\Мои_раздачи_BD_DVD\Карнавальная_ночь_1956г_Blu_ray_DVD5\VIDEO_TS\VTS_01_5.VOB
Формат : MPEG-PS
Размер файла : 164 Мбайт
Продолжительность : 2 м. 32 с.
Режим общего битрейта : Переменный
Общий поток : 9041 Кбит/сек
Видео
Идентификатор : 224 (0xE0)
Формат : MPEG Video
Версия формата : Version 2
Профиль формата : Main@Main
Параметр BVOP формата : Да
Параметр матрицы формата : Выборочная
Параметр GOP формата : M=3, N=15
Продолжительность : 2 м. 32 с.
Вид битрейта : Переменный
Битрейт : 7773 Кбит/сек
Максимальный битрейт : 8750 Кбит/сек
Ширина : 720 пикселей
Высота : 576 пикселей
Соотношение сторон : 4:3
Частота кадров : 25,000 кадров/сек
Стандарт вещания : PAL
Цветовое пространство : YUV
Субдискретизация насыщенности : 4:2:0
Битовая глубина : 8 бит
Тип развёртки : Чересстрочная
Порядок развёртки : Верхнее поле первое
Метод сжатия : С потерями
Бит/(Пиксели*Кадры) : 0.750
Размер потока : 141 Мбайт (86%)
Аудио #1
Идентификатор : 189 (0xBD)-128 (0x80)
Формат : AC-3
Формат/Информация : Audio Coding 3
Расширение режима : CM (complete main)
Параметр Endianness формата : Big
Режим смешивания : DVD-Video
Продолжительность : 2 м. 32 с.
Вид битрейта : Постоянный
Битрейт : 448 Кбит/сек
Каналы : 6 каналов
Расположение каналов : Front: L C R, Side: L R, LFE
Частота : 48,0 КГц
Битовая глубина : 16 бит
Метод сжатия : С потерями
Задержка видео : -160 мс.
Размер потока : 8,14 Мбайт (5%)
Аудио #2
Идентификатор : 189 (0xBD)-129 (0x81)
Формат : AC-3
Формат/Информация : Audio Coding 3
Расширение режима : CM (complete main)
Параметр Endianness формата : Big
Режим смешивания : DVD-Video
Продолжительность : 2 м. 32 с.
Вид битрейта : Постоянный
Битрейт : 448 Кбит/сек
Каналы : 2 канала
Расположение каналов : Front: L R
Частота : 48,0 КГц
Битовая глубина : 16 бит
Метод сжатия : С потерями
Задержка видео : -160 мс.
Размер потока : 8,14 Мбайт (5%)
Аудио #3
Идентификатор : 189 (0xBD)-130 (0x82)
Формат : AC-3
Формат/Информация : Audio Coding 3
Расширение режима : CM (complete main)
Параметр Endianness формата : Big
Режим смешивания : DVD-Video
Продолжительность : 2 м. 32 с.
Вид битрейта : Постоянный
Битрейт : 192 Кбит/сек
Каналы : 1 канал
Расположение каналов : Front: C
Частота : 48,0 КГц
Битовая глубина : 16 бит
Метод сжатия : С потерями
Задержка видео : -96 мс.
Размер потока : 3,49 Мбайт (2%)
Текст #1
Идентификатор : 189 (0xBD)-32 (0x20)
Формат : RLE
Формат/Информация : Run-length encoding
Режим смешивания : DVD-Video
Задержка видео : 3 с. 120 мс.
Текст #2
Идентификатор : 189 (0xBD)-33 (0x21)
Формат : RLE
Формат/Информация : Run-length encoding
Режим смешивания : DVD-Video
Задержка видео : 2 с. 120 мс.

Используемый софт

Видео
ProCoder 3 - конвертация видео
AviSynth - обработка видео
DGDecodeNV - индексирование
Программы для разборки ремукса
tsMuxeR - разборка ремукса
Работа со звуком
TranzcodeGUI - извлечение WAV
Adobe Audition - обработка звуковых дорожек
Sonic Foundry Soft Encode - конвертация из формата WAV в AC3
Работа с меню и реавторинг
DVD-lab PRO 2 - реавторинг диска
MuxMan - проверка соответствия стандарту DVD(не завышен ли битрейт диска)
Adobe Photoshop - редактирование меню
СкриптLoadPlugin("C:\Program Files\Progr_convert_BD_DVD\DGDecodeNV\DGDecodeNV.dll")
DGSource("E:\Convertirov_ BD_DVD\Karnavalnaj_noch\temp\DGIndexNV\Karnavalnaj_noch.dgi") #если в исходнике отсутствуют артефакты
LoadPlugin("C:\Program Files\Progr_convert_BD_DVD\AutoYUY2\AutoYUY2.dll") #более медленный, но качественный аналог ConvertToYUY2()
AutoYUY2()
LoadPlugin("C:\Program Files\Progr_convert_BD_DVD\ColorMatrix\ColorMatrix.dll")
ColorMatrix(mode="Rec.709->Rec.601", inputFR=false, clamp=0) #корректировка цветовой шкалы, если проверка показывает 16-235
Crop(220,0,-220,0) #Обрезаем по бокам полосы
Lanczos4Resize(720, 560) #Уменьшаем до разрешения ПАЛа
AddBorders(0,8,0,8)
AssumeFPS(25) #Частота кадров ПАЛа

Скриншоты меню

Скриншоты

Фильм записан на диск Verbatim DVD+R программой ImgBurn по инструкции.
Работоспособность проверена на стационарном плеере SONY DVP-NS330 и рекордере BBK DW 9955K.
[Профиль] [ЛС]
Показать сообщения:    

Текущее время: Сегодня 11:06

Часовой пояс: GMT



Вы не можете начинать темы
Вы не можете отвечать на сообщения
Вы не можете редактировать свои сообщения
Вы не можете удалять свои сообщения
Вы не можете голосовать в опросах
Вы не можете прикреплять файлы к сообщениям
Вы не можете скачивать файлы