Карина красная [01-08 из 08] (2016) WEB-DLRip

 
Автор Сообщение

достали все ®

Пол:

Стаж: 2 года 3 месяца

Сообщений: 6784



Награды: 12 (Подробнее)

Mega Releaser 1 (Количество: 1) Top Releaser 4 (Количество: 1) Mega Seeder 5 (Количество: 1)
Торрент-статистика

Создавать темы 23-Сен-2016 09:10

[Цитировать]

Информация о фильме
Оригинальное название: Карина красная
Год выпуска: 2016
Жанр: Мелодрама, криминал
Режиссер: Евгений Лаврентьев
В ролях: Марина Коняшкина, Юрий Чурсин, Сергей Юшкевич, Антон Батырев, Алексей Коряков, Наталья Батрак, Григорий Калинин, Светлана Корчагина, Николай Сахаров, Стефан Гетц Тим, Зураб Миминошвили, Игорь Поселенов, Виктор Полторацкий, Михаил Негин, Максим Зыков, Дмитрий Сидоров (II), Елена Степанова (II)
О фильме:
Первая любовь «комсомолки и красавицы» Карины оказывается несчастливой. Ее парень Миша, виновный в гибели пешехода, позволяет Карине взять вину на себя и рвёт с ней отношения. Неожиданно Карина получает предложение о замужестве от приятеля ее отца – влиятельного и зрелого мужчины, хозяина часовой мастерской. Разочаровавшись в своих иллюзиях, девушка выходит замуж за человека, которому есть что скрывать

Страна: Россия
Студия: Кинокомпания «Русское»
Продолжительность: 8 x ~ 00:45:00
Перевод: Не требуется
Файл
Формат: AVI
Качество: WEB-DLRip
Видео: XviD build 73, 720x400 (16:9), 25.000 fps, ~ 1500 Kbps (~ 0.210 bit/pixel)
Звук: 48.0 kHz, АС3, 2/0 ch, 192 kbps
Субтитры: нет

МедиаИнфо

General
Complete name : Karina.Krasnaja.2016.WEB-DLRip.by.GeneralFilmSerija.01.avi
Format : AVI
Format/Info : Audio Video Interleave
File size : 555 MiB
Duration : 46mn 6s
Overall bit rate : 1 683 Kbps
Writing application : VirtualDubMod 1.5.10.3 | www.virtualdub-fr.org || (build 2550/release)
Writing library : VirtualDubMod build 2550/release
Video
ID : 0
Format : MPEG-4 Visual
Format profile : Advanced Simple@L5
Format settings, BVOP : 1
Format settings, QPel : No
Format settings, GMC : No warppoints
Format settings, Matrix : Custom
Codec ID : XVID
Codec ID/Hint : XviD
Duration : 46mn 6s
Bit rate : 1 481 Kbps
Width : 720 pixels
Height : 400 pixels
Display aspect ratio : 16:9
Frame rate : 25.000 fps
Color space : YUV
Chroma subsampling : 4:2:0
Bit depth : 8 bits
Scan type : Progressive
Compression mode : Lossy
Bits/(Pixel*Frame) : 0.206
Stream size : 489 MiB (88%)
Writing library : XviD 73
Audio
ID : 1
Format : AC-3
Format/Info : Audio Coding 3
Mode extension : CM (complete main)
Format settings, Endianness : Big
Codec ID : 2000
Duration : 46mn 6s
Bit rate mode : Constant
Bit rate : 192 Kbps
Channel(s) : 2 channels
Channel positions : Front: L R
Sampling rate : 48.0 KHz
Frame rate : 31.250 fps (1536 spf)
Compression mode : Lossy
Stream size : 63.3 MiB (11%)
Alignment : Split accross interleaves
Interleave, duration : 40 ms (1.00 video frame)
Interleave, preload duratio : 500 ms

Скриншоты



Релиз от:
[Профиль] [ЛС]
Кто просматривает тему:

Показать сообщения:    

Текущее время: Сегодня 16:36

Часовой пояс: GMT



Вы не можете начинать темы
Вы не можете отвечать на сообщения
Вы не можете редактировать свои сообщения
Вы не можете удалять свои сообщения
Вы не можете голосовать в опросах
Вы не можете прикреплять файлы к сообщениям
Вы не можете скачивать файлы