Каратэ-пацан / The Karate Kid (Харольд Цварт / Harald Zwart) [2010, США, Китай, драма, спорт, семейный, BDRip-AVC] Dub + Original (Eng) + Subs (Rus, Eng)

 
Автор Сообщение

TorrentFilm ®

Пол:

Стаж: 2 года

Сообщений: 7741



Награды: Нет

Торрент-статистика

Создавать темы 10-Янв-2015 00:00

[Цитировать]

Каратэ-пацан / The Karate Kid«Испытания, к которым он не был готов. Наставник, которого ему подарила судьба»- Страна: США, Китай
Жанр: драма, спорт, семейный
Год выпуска: 2010
Продолжительность: 02:20:01-Перевод: Профессиональный (дублированный)
Оригинальная аудиодорожка: English
Cубтитры: Русские (форсированные), English (full)
Навигация по главам: присутствует - 16 глав-Режиссер: Харольд Цварт / Harald Zwart
В ролях: Джеки Чан, Джейден Смит, Тараджи П. Хенсон, Венвен Хань, Юй Жун Гуан, Чжэньсу У, Чжэнь Ванг, Чжэньвэй Ван, Джаред Миннс, Шийя Лю-Описание: Двенадцатилетний Дре Паркер вместе с матерью-одиночкой переезжает из Детройта в незнакомый Пекин, не зная языка и местных традиций. Здесь он встречает китайскую девочку Мей Ин. Однако кроме её отца, не одобряющего их дружбу из-за культурных предрассудков, на его пути встаёт банда хулиганов во главе с Ченом, владеющим искусством кунг-фу. Единственный способ победить его — встретиться с врагом на близящемся грандиозном турнире боевых искусств. В этом мальчику решает помочь знаток боевых искусств мистер Хан.-
Download sample-Качество видео: BDRip-AVC | исх. Blu-ray Disc 4K - thx:
Формат: MKV-Видео: 1 162x486 (2.40:1), 23.976 fps, H.264 ~4242 kbps avg, 0.306 bit/pixel
Аудио №1: 48.0 kHz, AC3 Dolby Digital, 3/2 (L,C,R,l,r) + LFE ch, ~448 kbps | Профессиональный (дублированный)
Аудио №2: 48.0 kHz, AC3 Dolby Digital, 3/2 (L,C,R,l,r) + LFE ch, ~448 kbps | English-

MediaInfo

General
Unique ID : 196491549573980487662546090899398414356 (0x93D2E55AA4B2C8AAA02F448DD4AF5014)
Complete name : D:\Фильмы\Рипы\The Karate Kid.2010.BDRip-AVC.eFK tRuAVC.mkv
Format : Matroska
Format version : Version 4 / Version 2
File size : 5.03 GiB
Duration : 2h 20mn
Overall bit rate : 5 137 Kbps
Movie name : Каратэ-пацан / The Karate Kid (2010) - Release for rutracker
Encoded date : UTC 2015-01-08 09:51:22
Writing application : mkvmerge v7.2.0 ('On Every Street') 64bit built on Sep 13 2014 15:52:10
Writing library : libebml v1.3.0 + libmatroska v1.4.1
DURATION : 01:54:52.601000000
NUMBER_OF_FRAMES : 83
NUMBER_OF_BYTES : 4055
_STATISTICS_WRITING_APP : mkvmerge v7.2.0 ('On Every Street') 64bit built on Sep 13 2014 15:52:10
_STATISTICS_WRITING_DATE_UTC : 2015-01-08 09:51:22
_STATISTICS_TAGS : BPS DURATION NUMBER_OF_FRAMES NUMBER_OF_BYTES
Attachment : Yes
Video
ID : 1
Format : AVC
Format/Info : Advanced Video Codec
Format profile : High@L4.1
Format settings, CABAC : Yes
Format settings, ReFrames : 13 frames
Codec ID : V_MPEG4/ISO/AVC
Duration : 2h 20mn
Bit rate : 4 139 Kbps
Width : 1 162 pixels
Height : 486 pixels
Display aspect ratio : 2.40:1
Frame rate mode : Constant
Frame rate : 23.976 fps
Color space : YUV
Chroma subsampling : 4:2:0
Bit depth : 8 bits
Scan type : Progressive
Bits/(Pixel*Frame) : 0.306
Stream size : 4.05 GiB (81%)
Title : eFK tRuAVC
Writing library : x264 core 142 r2491kMod 24e4fed
Encoding settings : cabac=1 / ref=13 / deblock=1:-2:-2 / analyse=0x3:0x133 / me=umh / subme=11 / psy=1 / fade_compensate=0.00 / psy_rd=1.00:0.05 / mixed_ref=1 / me_range=48 / chroma_me=1 / trellis=2 / 8x8dct=1 / cqm=0 / deadzone=21,11 / fast_pskip=0 / chroma_qp_offset=-3 / threads=12 / lookahead_threads=3 / sliced_threads=0 / nr=0 / decimate=1 / interlaced=0 / bluray_compat=0 / constrained_intra=0 / fgo=0 / bframes=16 / b_pyramid=2 / b_adapt=2 / b_bias=0 / direct=3 / weightb=1 / open_gop=0 / weightp=2 / keyint=250 / keyint_min=23 / scenecut=40 / intra_refresh=0 / rc_lookahead=60 / rc=crf / mbtree=0 / crf=18.8000 / qcomp=0.60 / qpmin=0 / qpmax=69 / qpstep=4 / vbv_maxrate=50000 / vbv_bufsize=62500 / crf_max=0.0 / nal_hrd=none / filler=0 / ip_ratio=1.25 / pb_ratio=1.15 / aq=3:0.90
Language : English
Default : Yes
Forced : No
Color primaries : BT.709
Transfer characteristics : BT.709
Matrix coefficients : BT.709
DURATION : 02:20:01.393000000
NUMBER_OF_FRAMES : 201432
NUMBER_OF_BYTES : 4455213688
_STATISTICS_WRITING_APP : mkvmerge v7.2.0 ('On Every Street') 64bit built on Sep 13 2014 15:52:10
_STATISTICS_WRITING_DATE_UTC : 2015-01-08 09:51:22
_STATISTICS_TAGS : BPS DURATION NUMBER_OF_FRAMES NUMBER_OF_BYTES
Audio #1
ID : 2
Format : AC-3
Format/Info : Audio Coding 3
Mode extension : CM (complete main)
Format settings, Endianness : Big
Codec ID : A_AC3
Duration : 2h 20mn
Bit rate mode : Constant
Bit rate : 448 Kbps
Channel count : 6 channels
Channel positions : Front: L C R, Side: L R, LFE
Sampling rate : 48.0 KHz
Bit depth : 16 bits
Compression mode : Lossy
Stream size : 449 MiB (9%)
Title : Dub
Default : Yes
Forced : No
Audio #2
ID : 3
Format : AC-3
Format/Info : Audio Coding 3
Mode extension : CM (complete main)
Format settings, Endianness : Big
Codec ID : A_AC3
Duration : 2h 20mn
Bit rate mode : Constant
Bit rate : 448 Kbps
Channel count : 6 channels
Channel positions : Front: L C R, Side: L R, LFE
Sampling rate : 48.0 KHz
Bit depth : 16 bits
Compression mode : Lossy
Stream size : 449 MiB (9%)
Language : English
Default : No
Forced : No
Text #1
ID : 4
Format : UTF-8
Codec ID : S_TEXT/UTF8
Codec ID/Info : UTF-8 Plain Text
Title : forced
Language : Russian
Default : Yes
Forced : No
Text #2
ID : 5
Format : UTF-8
Codec ID : S_TEXT/UTF8
Codec ID/Info : UTF-8 Plain Text
Title : full
Language : English
Default : No
Forced : No
Menu
00:00:00.000 : :Chapter 01
00:10:26.250 : :Chapter 02
00:15:06.322 : :Chapter 03
00:24:27.215 : :Chapter 04
00:39:49.303 : :Chapter 05
00:49:52.406 : :Chapter 06
00:54:55.000 : :Chapter 07
01:04:37.623 : :Chapter 08
01:09:47.057 : :Chapter 09
01:20:24.569 : :Chapter 10
01:30:43.479 : :Chapter 11
01:41:44.098 : :Chapter 12
01:46:57.661 : :Chapter 13
01:50:24.576 : :Chapter 14
01:58:59.674 : :Chapter 15
02:03:57.179 : :Chapter 16

x264 log

x264 [info]: frame I:1516 Avg QP:19.29 size: 82379
x264 [info]: frame P:50422 Avg QP:20.72 size: 36063
x264 [info]: frame B:149494 Avg QP:21.59 size: 16803
x264 [info]: consecutive B-frames: 3.4% 6.0% 10.2% 28.6% 17.5% 25.2% 4.0% 1.8% 1.1% 0.7% 0.4% 0.5% 0.3% 0.2% 0.1% 0.0% 0.0%
x264 [info]: mb I I16..4: 4.4% 77.5% 18.1%
x264 [info]: mb P I16..4: 0.6% 18.4% 2.4% P16..4: 28.3% 32.2% 12.2% 1.7% 0.1% skip: 4.1%
x264 [info]: mb B I16..4: 0.1% 2.8% 0.3% B16..8: 35.5% 23.6% 5.0% direct: 7.9% skip:24.7% L0:40.7% L1:44.1% BI:15.2%
x264 [info]: 8x8 transform intra:85.6% inter:63.0%
x264 [info]: direct mvs spatial:100.0% temporal:0.0%
x264 [info]: coded y,uvDC,uvAC intra: 93.4% 94.7% 81.1% inter: 38.3% 36.6% 14.0%
x264 [info]: i16 v,h,dc,p: 34% 17% 4% 45%
x264 [info]: i8 v,h,dc,ddl,ddr,vr,hd,vl,hu: 11% 7% 7% 10% 14% 14% 13% 12% 12%
x264 [info]: i4 v,h,dc,ddl,ddr,vr,hd,vl,hu: 15% 8% 3% 8% 15% 15% 14% 11% 11%
x264 [info]: i8c dc,h,v,p: 42% 18% 19% 21%
x264 [info]: Weighted P-Frames: Y:4.9% UV:3.5%
x264 [info]: ref P L0: 48.1% 13.9% 16.3% 5.1% 4.3% 2.8% 2.7% 1.4% 1.4% 1.1% 1.0% 0.8% 0.9% 0.2% 0.0%
x264 [info]: ref B L0: 76.1% 10.7% 4.6% 2.4% 1.6% 1.3% 1.0% 0.7% 0.5% 0.5% 0.3% 0.1%
x264 [info]: ref B L1: 94.1% 5.9%
x264 [info]: kb/s:4242.36
x264 [total]: encoded 201432 frames, 6.17 fps, 4242.36 kb/s, duration 9:03:44.98

Comparison

Source

Encode

BD EUR

BD "4K"
[Профиль] [ЛС]

Создавать темы 06-Авг-2015 22:48 (спустя 6 месяцев 27 дней)

Топик был перенесен из форума Фильмы до 2014 года в форум Фильмы до 2012 года
sergej644
 

Создавать темы 12-Июн-2016 07:54 (спустя 1 год 5 месяцев)

Топик был перенесен из форума Фильмы 2011 года в форум Фильмы 2010 года
Russian Mafia
 
Показать сообщения:    

Текущее время: Сегодня 22:33

Часовой пояс: GMT



Вы не можете начинать темы
Вы не можете отвечать на сообщения
Вы не можете редактировать свои сообщения
Вы не можете удалять свои сообщения
Вы не можете голосовать в опросах
Вы не можете прикреплять файлы к сообщениям
Вы не можете скачивать файлы