Капризка (Леонид Кощеников) [1983, Кукольный мультфильм, DVDRip]

 
Автор Сообщение

TorrentFilm ®

Пол:

Стаж: 2 года

Сообщений: 7741



Награды: Нет

Торрент-статистика

Создавать темы 04-Янв-2016 00:01

[Цитировать]

Капризка
Страна: СССР
Жанр: Кукольный мультфильм
Продолжительность: 00:19:32
Год выпуска: 1983
Русские субтитры: нет
Режиссёр: Леонид Кощеников
Роли озвучивали: В.Киселева,В.Мартьянов,Б.Макаров,
Н.Никифорова,М.Ракова,Е.Стурова
Описание: Музыкальный мультфильм по мотивам повести пермского писателя Владимира Воробьева «Капризка – вождь ничевоков». Маленький человечек Капризка всегда появляется рядом с малышами. И когда они засыпают, нашептывает им на ухо всякие нехорошие вещи – призывает не слушать родителей и бабушек-дедушек, заставляет плакать, капризничать и безобразничать. Чем может обернуться такое поведение для маленьких детей и самого Капризки?
Доп. информация:
Выпущено:« ПЕРМЬТЕЛЕФИЛЬМ,»
Художники постановщики:В.Стеннинг,Л.Ольшевская.
Директор:С.Куценко.
Релиз группы:
Качество: DVDRip
Формат: AVI
Видео: 704x528 (1.33:1), 25 fps, XviD MPEG-4 ~2299 kbps avg, 0.25 bit/pixel
Аудио: 48 kHz, AC3 Dolby Digital, 2/0 (L,R) ch, ~192.00 kbps avg
Субтитры: нет

Подробные технические данные

Format : AVIFormat/Info : Audio Video InterleaveFile size : 350 MiBDuration : 19mn 32sOverall bit rate : 2 501 KbpsWriting application : VirtualDubModRus 1.5.10.2 (build 2542/release)Copyright : Rutracker.orgComment : DVDRip by dvdss
VideoID : 0Format : MPEG-4 VisualFormat profile : Advanced Simple@L5Format settings, BVOP : 2Format settings, QPel : NoFormat settings, GMC : No warppointsFormat settings, Matrix : CustomCodec ID : XVIDCodec ID/Hint : XviDDuration : 19mn 32sBit rate : 2 299 KbpsWidth : 704 pixelsHeight : 528 pixelsDisplay aspect ratio : 5:4Original display aspect ratio : 4:3Frame rate : 25.000 fpsColor space : YUVChroma subsampling : 4:2:0Bit depth : 8 bitsScan type : ProgressiveCompression mode : LossyBits/(Pixel*Frame) : 0.247Stream size : 321 MiB (92%)Writing library : XviD 65
AudioID : 1Format : AC-3Format/Info : Audio Coding 3Mode extension : CM (complete main)Format settings, Endianness : BigCodec ID : 2000Duration : 19mn 32sBit rate mode : ConstantBit rate : 192 KbpsChannel(s) : 2 channelsChannel positions : Front: L RSampling rate : 48.0 KHzBit depth : 16 bitsCompression mode : LossyDelay relative to video : 28msStream size : 26.8 MiB (8%)Alignment : Split accross interleavesInterleave, duration : 40 ms (1.00 video frame)Interleave, preload duration : 500 ms
[Профиль] [ЛС]
Показать сообщения:    

Текущее время: Сегодня 04:45

Часовой пояс: GMT



Вы не можете начинать темы
Вы не можете отвечать на сообщения
Вы не можете редактировать свои сообщения
Вы не можете удалять свои сообщения
Вы не можете голосовать в опросах
Вы не можете прикреплять файлы к сообщениям
Вы не можете скачивать файлы