Капля мёда (Валентин Подпомогов) [1968, Рисованный мультфильм, TVRip][Арменфильм]

 
Автор Сообщение

TorrentFilm ®

Пол:

Стаж: 2 года

Сообщений: 7741



Награды: Нет

Торрент-статистика

Создавать темы 05-Окт-2015 00:09

[Цитировать]

Капля мёда
Страна: СССР
Жанр: Рисованный мультфильм
Продолжительность: 00:11:50
Год выпуска: 1968
Русские субтитры: нет
Режиссёр: Валентин Подпомогов
Описание: По сказкам О. Туманяна. Сказка-притча о том, как всего лишь из-за капли меда может разгореться кровопролитная война
Доп. информация: «Арменфильм»
Раздача группы:
Качество: TVRip
Формат: AVI
Видео: 624x464 (1.34:1), 29.970 fps, DivX Codec 5.x or 6.x ~2200 kbps avg, 0.25 bit/pixel
Аудио: 48 kHz, MPEG Layer 3, 2 ch, ~160.00 kbps avg
Субтитры: нет

Подробные технические данные

Format : AVIFormat/Info : Audio Video InterleaveFile size : 201 MiBDuration : 11mn 50sOverall bit rate : 2 372 KbpsWriting application : VirtualDubMod 1.5.10.2 (build 2542/release)Writing library : VirtualDubMod build 2542/release
VideoID : 0Format : MPEG-4 VisualFormat settings, BVOP : 2Format settings, QPel : NoFormat settings, GMC : No warppointsFormat settings, Matrix : Default (H.263)Muxing mode : Packed bitstreamCodec ID : DX50Codec ID/Hint : DivX 5Duration : 11mn 50sBit rate : 2 200 KbpsWidth : 624 pixelsHeight : 464 pixelsDisplay aspect ratio : 3:2Original display aspect ratio : 4:3Frame rate : 29.970 fpsColor space : YUVChroma subsampling : 4:2:0Bit depth : 8 bitsScan type : ProgressiveCompression mode : LossyBits/(Pixel*Frame) : 0.254Stream size : 186 MiB (93%)Writing library : DivX 6.8.3-6.8.4 (UTC 2008-06-07)
AudioID : 1Format : MPEG AudioFormat version : Version 1Format profile : Layer 3Mode : Joint stereoMode extension : MS StereoCodec ID : 55Codec ID/Hint : MP3Duration : 11mn 50sBit rate mode : ConstantBit rate : 160 KbpsChannel(s) : 2 channelsSampling rate : 48.0 KHzCompression mode : LossyDelay relative to video : 45msStream size : 13.6 MiB (7%)Alignment : Split accross interleavesInterleave, duration : 33 ms (1.00 video frame)Interleave, preload duration : 500 ms

Скриншоты

[Профиль] [ЛС]
Показать сообщения:    

Текущее время: Сегодня 14:35

Часовой пояс: GMT



Вы не можете начинать темы
Вы не можете отвечать на сообщения
Вы не можете редактировать свои сообщения
Вы не можете удалять свои сообщения
Вы не можете голосовать в опросах
Вы не можете прикреплять файлы к сообщениям
Вы не можете скачивать файлы