Капитан Филлипс / Captain Phillips (2013) BDRip 1080p

 
Автор Сообщение

sergej644 ®

Пол:

Стаж: 4 года 11 месяцев

Сообщений: 6043

Откуда: Soviet Union



Награды: Нет

Торрент-статистика

Создавать темы 21-Янв-2015 22:20

[Цитировать]

Информация о фильме
Название: Капитан Филлипс
Оригинальное название: Captain Phillips
Год выхода: 2013
Жанр: боевик, триллер, драма
Режиссер: Пол Гринграсс
В ролях: Том Хэнкс, Баркхад Абди, Баркхад Абдирахман, Файсал Ахмед, Махат М. Али, Майкл Чернус, Юл Васкез, Макс Мартини, Кэтрин Кинер, Крис Малки
О фильме:
В начале апреля 2009 года, близ берегов Африки, несколько сомалийских пиратов атакуют и пытаются захватить массивный контейнеровоз MV Maersk Alabama. Команда корабля активно сопротивляется и в конце концов не даёт взять себя в плен. Захватчики вынуждены ретироваться и покинуть судно на небольшом катере, прихватив с собой немолодого капитана Ричарда Филлипса…

Выпущено: США
Студия: Columbia Pictures
Продолжительность: 02:14:04
Перевод: Дублированный (лицензия) + Украинский + Оригинал
Файл
Кодек: x264
Качество: BDRip (источник: Blu-ray Disc)
Видео: 1920x802 (2,40:1), 23.976 fps, 10406 kbps
Аудио #1: AC-3, 6 ch, 640 kbps (Rus)
Аудио #2: AC-3, 6 ch, 640 kbps (Ukr)
Аудио #3: AC-3, 6 ch, 640 kbps (Eng)
Субтитры: Русские (форсированные), Русские, Украинские (форсированные), Английские (форсированные), Английские, Английские (SDH), Английские (SDH COLORED)

Скриншоты

MI

Общее
Уникальный идентификатор : 192156553179087003230073284201259905795 (0x90900187C2939FEF8D778EC5EE76B303)
Полное имя : F:Captain.Phillips.2013.BDRip.1080p.Rus.Ukr.Eng.mkv
Формат : Matroska
Версия формата : Version 2
Размер файла : 11,5 Гбайт
Продолжительность : 2 ч. 14 м.
Общий поток : 12,3 Мбит/сек
Название фильма : Капитан Филлипс / Captain Phillips (2013)
Дата кодирования : UTC 2014-02-09 18:25:20
Программа кодирования : mkvmerge v5.8.0 ('No Sleep / Pillow') built on Sep 2 2012 15:37:04
Библиотека кодирования : libebml v1.2.3 + libmatroska v1.3.0
Attachment : Yes
Видео
Идентификатор : 1
Формат : AVC
Формат/Информация : Advanced Video Codec
Профиль формата : High@L4.1
Параметр CABAC формата : Да
Параметр ReFrames формата : 5 кадров
Идентификатор кодека : V_MPEG4/ISO/AVC
Продолжительность : 2 ч. 14 м.
Битрейт : 10,4 Мбит/сек
Ширина : 1920 пикселей
Высота : 802 пикселя
Соотношение сторон : 2,40:1
Режим частоты кадров : Постоянный
Частота кадров : 23,976 кадра/сек
Цветовое пространство : YUV
Субдискретизация насыщенности : 4:2:0
Битовая глубина : 8 бит
Тип развёртки : Прогрессивная
Бит/(Пиксели*Кадры) : 0.282
Размер потока : 9,52 Гбайт (82%)
Заголовок : Release by N1NT3NDO
Библиотека кодирования : x264 core 140 r2377 1ca7bb9
Настройки программы : cabac=1 / ref=5 / deblock=1:-3:-3 / analyse=0x3:0x133 / me=umh / subme=11 / psy=1 / psy_rd=1.00:0.00 / mixed_ref=1 / me_range=32 / chroma_me=1 / trellis=2 / 8x8dct=1 / cqm=0 / deadzone=21,11 / fast_pskip=0 / chroma_qp_offset=-2 / threads=12 / lookahead_threads=1 / sliced_threads=0 / nr=0 / decimate=0 / interlaced=0 / bluray_compat=0 / constrained_intra=0 / bframes=6 / b_pyramid=2 / b_adapt=2 / b_bias=0 / direct=3 / weightb=1 / open_gop=0 / weightp=2 / keyint=240 / keyint_min=23 / scenecut=40 / intra_refresh=0 / rc=2pass / mbtree=0 / bitrate=10408 / ratetol=1.0 / qcomp=0.60 / qpmin=0 / qpmax=69 / qpstep=4 / cplxblur=20.0 / qblur=0.5 / ip_ratio=1.40 / pb_ratio=1.30 / aq=1:1.00
Язык : English
Default : Да
Forced : Нет
Аудио #1
Идентификатор : 2
Формат : AC-3
Формат/Информация : Audio Coding 3
Расширение режима : CM (complete main)
Параметр Endianness формата : Big
Идентификатор кодека : A_AC3
Продолжительность : 2 ч. 14 м.
Вид битрейта : Постоянный
Битрейт : 640 Кбит/сек
Каналы : 6 каналов
Расположение каналов : Front: L C R, Side: L R, LFE
Частота : 48,0 КГц
Битовая глубина : 16 бит
Метод сжатия : С потерями
Размер потока : 614 Мбайт (5%)
Заголовок : Russian
Язык : Russian
Default : Да
Forced : Нет
Аудио #2
Идентификатор : 3
Формат : AC-3
Формат/Информация : Audio Coding 3
Расширение режима : CM (complete main)
Параметр Endianness формата : Big
Идентификатор кодека : A_AC3
Продолжительность : 2 ч. 14 м.
Вид битрейта : Постоянный
Битрейт : 640 Кбит/сек
Каналы : 6 каналов
Расположение каналов : Front: L C R, Side: L R, LFE
Частота : 48,0 КГц
Битовая глубина : 16 бит
Метод сжатия : С потерями
Размер потока : 614 Мбайт (5%)
Заголовок : Ukrainian
Язык : Ukrainian
Default : Нет
Forced : Нет
Аудио #3
Идентификатор : 4
Формат : AC-3
Формат/Информация : Audio Coding 3
Расширение режима : CM (complete main)
Параметр Endianness формата : Big
Идентификатор кодека : A_AC3
Продолжительность : 2 ч. 14 м.
Вид битрейта : Постоянный
Битрейт : 640 Кбит/сек
Каналы : 6 каналов
Расположение каналов : Front: L C R, Side: L R, LFE
Частота : 48,0 КГц
Битовая глубина : 16 бит
Метод сжатия : С потерями
Размер потока : 614 Мбайт (5%)
Заголовок : English
Язык : English
Default : Нет
Forced : Нет
Текст #1
Идентификатор : 5
Формат : UTF-8
Идентификатор кодека : S_TEXT/UTF8
Идентификатор кодека/Информация : UTF-8 Plain Text
Заголовок : Russian (Forced)
Язык : Russian
Default : Да
Forced : Да
Текст #2
Идентификатор : 6
Формат : UTF-8
Идентификатор кодека : S_TEXT/UTF8
Идентификатор кодека/Информация : UTF-8 Plain Text
Заголовок : Russian
Язык : Russian
Default : Нет
Forced : Нет
Текст #3
Идентификатор : 7
Формат : UTF-8
Идентификатор кодека : S_TEXT/UTF8
Идентификатор кодека/Информация : UTF-8 Plain Text
Заголовок : Ukrainian (Forced)
Язык : Ukrainian
Default : Нет
Forced : Нет
Текст #4
Идентификатор : 8
Формат : UTF-8
Идентификатор кодека : S_TEXT/UTF8
Идентификатор кодека/Информация : UTF-8 Plain Text
Заголовок : English (Forced)
Язык : English
Default : Нет
Forced : Нет
Текст #5
Идентификатор : 9
Формат : UTF-8
Идентификатор кодека : S_TEXT/UTF8
Идентификатор кодека/Информация : UTF-8 Plain Text
Заголовок : English
Язык : English
Default : Нет
Forced : Нет
Текст #6
Идентификатор : 10
Формат : UTF-8
Идентификатор кодека : S_TEXT/UTF8
Идентификатор кодека/Информация : UTF-8 Plain Text
Заголовок : English (SDH)
Язык : English
Default : Нет
Forced : Нет
Текст #7
Идентификатор : 11
Формат : UTF-8
Идентификатор кодека : S_TEXT/UTF8
Идентификатор кодека/Информация : UTF-8 Plain Text
Заголовок : English (SDH COLORED)
Язык : English
Default : Нет
Forced : Нет
Меню
00:00:00.000 : :Chapter 01
00:09:12.927 : :Chapter 02
00:15:30.137 : :Chapter 03
00:22:48.742 : :Chapter 04
00:30:11.434 : :Chapter 05
00:39:38.876 : :Chapter 06
00:48:01.003 : :Chapter 07
00:58:24.751 : :Chapter 08
01:04:36.539 : :Chapter 09
01:13:02.836 : :Chapter 10
01:19:14.249 : :Chapter 11
01:25:41.261 : :Chapter 12
01:34:14.023 : :Chapter 13
01:41:44.598 : :Chapter 14
01:51:32.102 : :Chapter 15
02:02:38.851 : :Chapter 16

x264

x264 [info]: frame I:987 Avg QP:17.42 size:126934
x264 [info]: frame P:52328 Avg QP:18.63 size: 84852
x264 [info]: frame B:139549 Avg QP:20.59 size: 40669
x264 [info]: consecutive B-frames: 3.6% 7.0% 15.8% 30.1% 17.3% 23.5% 2.7%

Сравнение скриншотов

Source vs Encode
[Профиль] [ЛС]
Кто просматривает тему:

Форум Тема Автор Размер
Фильмы (HD Rips | 720p, 1080p) 30 свиданий (Татьяна Капитан) [2016, Россия, комедия, мелодрама, WEB-DL 1080p] Original Rus TorrentFilm 3.01 GB
Фильмы (HD Rips | 720p, 1080p) 30 свиданий (Татьяна Капитан) [2016, Россия, комедия, мелодрама, WEB-DL 720p] TorrentFilm 2.78 GB
Отечественная Классика Александр Сергеевич Пушкин - Капитанская дочка [Михаил Горевой, 2014] Magnat 233 MB
Путешествия и приключения Артуро Перес-Реверте - Приключения капитана Алатристе 6. Корсары Леванта (2016) MP3 Swager 532 MB
Путешествия и приключения Артуро Перес-Реверте - Приключения капитана Алатристе 7. Мост убийц (2016) MP3 Swager 366 MB
Сатира и юмор Виктор Конецкий - Странные капитаны [Владимир Самойлов, 2003] Magnat 655 MB
Отечественные мультфильмы Гугуцэ-капитан корабля (Константин Балан) [1981, Рисованный мультфильм, VHSRip] painkiller 138 MB
Отечественные cериалы Два капитана (01-06 из 06) (Евгений Карелов) [1976 г., Приключения, DVDRip] Шкипер 4.35 GB
Показать сообщения:    

Текущее время: Сегодня 00:33

Часовой пояс: GMT



Вы не можете начинать темы
Вы не можете отвечать на сообщения
Вы не можете редактировать свои сообщения
Вы не можете удалять свои сообщения
Вы не можете голосовать в опросах
Вы не можете прикреплять файлы к сообщениям
Вы не можете скачивать файлы