Капитан Фантастик / Captain Fantastic (2016) BDRemux 1080p | iTunes

 
Автор Сообщение

достали все ®

Пол:

Стаж: 1 год 8 месяцев

Сообщений: 6545



Награды: 12 (Подробнее)

Mega Seeder 1 (Количество: 1) Mega Seeder 5 (Количество: 1) Mega Releaser 2 (Количество: 1)
Торрент-статистика

Создавать темы 16-Окт-2016 17:35

[Цитировать]

Информация о фильме
Название: Капитан Фантастик
Оригинальное название: Captain Fantastic
Год выхода: 2016
Жанр: Драма, мелодрама, комедия
Режиссер: Мэтт Росс
В ролях: Вигго Мортенсен, Джордж МакКэй, Саманта Ислер, Анналиса Бассо, Николас Хэмилтон, Шри Крукс, Чарли Шотуэлл, Трин Миллер, Кэтрин Хан, Стив Зан
О фильме:
Они говорят на нескольких языках, знают квантовую физику и разбираются в философии. Они умеют охотиться и обращаться с оружием. Они живут в лесу в полной гармонии с природой. Лишь стечение обстоятельств заставляет их покинуть родной дом и отправиться в большой город. Что будет, когда они столкнутся с цивилизацией, когда на них обрушится первая любовь и мир гаджетов и социальных сетей?

Страна: США
Студия: Electric City Entertainment, ShivHans Pictures
Продолжительность: 01:59:29
Перевод: Профессиональный многоголосый (закадровый) | iTunes
Файл
Кодек: MPEG-4
Качество: BDRemux 1080p
Видео: 1920x1080, 26.6 Mbit/s, 23.976 fps
Звук:
Аудио #01: 48 kHz, AC3, 5.1, 384 Kbps | Профессиональный многоголосый (закадровый) |
Аудио #02: 48 kHz, DTS-HD MA, 5.1, 3250 kbps | Оригинал |
Субтитры: Английские

MI

General
Unique ID : 191506261356176171289047537345887184565 (0x9012C3AB05D6048DBDFD9D8B13EFA6B5)
Complete name : H:VideoCaptain.Fantastic.2016.BDREMUX.1080p.ExKinoRay.mkv
Format : Matroska
Format version : Version 4 / Version 2
File size : 25.2 GiB
Duration : 1 h 59 min
Overall bit rate mode : Variable
Overall bit rate : 30.2 Mb/s
Movie name : build by ***селезень***
Encoded date : UTC 2016-10-16 15:43:25
Writing application : mkvmerge v8.3.0 ('Over the Horizon') 64bit
Writing library : libebml v1.3.1 + libmatroska v1.4.2
Video
ID : 1
Format : AVC
Format/Info : Advanced Video Codec
Format profile : High@L4.1
Format settings, CABAC : Yes
Format settings, ReFrames : 2 frames
Codec ID : V_MPEG4/ISO/AVC
Duration : 1 h 59 min
Bit rate mode : Variable
Bit rate : 26.6 Mb/s
Width : 1 920 pixels
Height : 1 080 pixels
Display aspect ratio : 16:9
Frame rate mode : Constant
Frame rate : 23.976 (24000/1001) FPS
Color space : YUV
Chroma subsampling : 4:2:0
Bit depth : 8 bits
Scan type : Progressive
Bits/(Pixel*Frame) : 0.535
Stream size : 22.2 GiB (88%)
Title : build by ***селезень***
Language : English
Default : Yes
Forced : No
Audio #1
ID : 2
Format : AC-3
Format/Info : Audio Coding 3
Mode extension : CM (complete main)
Format settings, Endianness : Big
Codec ID : A_AC3
Duration : 1 h 59 min
Bit rate mode : Constant
Bit rate : 384 kb/s
Channel(s) : 6 channels
Channel positions : Front: L C R, Side: L R, LFE
Sampling rate : 48.0 kHz
Frame rate : 31.250 FPS (1536 spf)
Compression mode : Lossy
Stream size : 328 MiB (1%)
Title : MVO [iTunes]
Language : Russian
Default : Yes
Forced : No
Audio #2
ID : 3
Format : DTS
Format/Info : Digital Theater Systems
Format profile : MA / Core
Mode : 16
Format settings, Endianness : Big
Codec ID : A_DTS
Duration : 1 h 59 min
Bit rate mode : Variable / Constant
Bit rate : 3 250 kb/s / 1 509 kb/s
Channel(s) : 6 channels
Channel positions : Front: L C R, Side: L R, LFE
Sampling rate : 48.0 kHz
Frame rate : 93.750 FPS (512 spf)
Bit depth : 24 bits
Compression mode : Lossless / Lossy
Stream size : 2.71 GiB (11%)
Title : Original
Language : English
Default : No
Forced : No
Text
ID : 4
Format : UTF-8
Codec ID : S_TEXT/UTF8
Codec ID/Info : UTF-8 Plain Text
Duration : 1 h 51 min
Bit rate : 47 b/s
Count of elements : 1324
Stream size : 39.2 KiB (0%)
Title : Full
Language : English
Default : No
Forced : No
Menu
00:00:00.000 : en:00:00:00.000
00:05:14.272 : en:00:05:14.272
00:11:12.046 : en:00:11:12.046
00:17:34.220 : en:00:17:34.220
00:25:20.728 : en:00:25:20.728
00:31:37.187 : en:00:31:37.187
00:37:41.509 : en:00:37:41.509
00:40:25.548 : en:00:40:25.548
00:46:10.601 : en:00:46:10.601
00:54:03.449 : en:00:54:03.449
00:59:34.696 : en:00:59:34.696
01:08:21.431 : en:01:08:21.431
01:14:08.486 : en:01:14:08.486
01:20:18.647 : en:01:20:18.647
01:24:30.774 : en:01:24:30.774
01:30:19.331 : en:01:30:19.331
01:36:52.807 : en:01:36:52.807
01:43:03.719 : en:01:43:03.719
01:48:23.163 : en:01:48:23.163
01:52:47.344 : en:01:52:47.344

Автор релиза:
[Профиль] [ЛС]
Кто просматривает тему:

Форум Тема Автор Размер
Фильмы (HD Rips | 720p, 1080p) 30 свиданий (Татьяна Капитан) [2016, Россия, комедия, мелодрама, WEB-DL 1080p] Original Rus TorrentFilm 3.01 GB
Фильмы (HD Rips | 720p, 1080p) 30 свиданий (Татьяна Капитан) [2016, Россия, комедия, мелодрама, WEB-DL 720p] TorrentFilm 2.78 GB
Отечественная Классика Александр Сергеевич Пушкин - Капитанская дочка [Михаил Горевой, 2014] Magnat 233 MB
Путешествия и приключения Артуро Перес-Реверте - Приключения капитана Алатристе 6. Корсары Леванта (2016) MP3 Swager 532 MB
Путешествия и приключения Артуро Перес-Реверте - Приключения капитана Алатристе 7. Мост убийц (2016) MP3 Swager 366 MB
Сатира и юмор Виктор Конецкий - Странные капитаны [Владимир Самойлов, 2003] Magnat 655 MB
Отечественные мультфильмы Гугуцэ-капитан корабля (Константин Балан) [1981, Рисованный мультфильм, VHSRip] painkiller 138 MB
Отечественные cериалы Два капитана (01-06 из 06) (Евгений Карелов) [1976 г., Приключения, DVDRip] Шкипер 4.35 GB
Показать сообщения:    

Текущее время: Сегодня 18:41

Часовой пояс: GMT



Вы не можете начинать темы
Вы не можете отвечать на сообщения
Вы не можете редактировать свои сообщения
Вы не можете удалять свои сообщения
Вы не можете голосовать в опросах
Вы не можете прикреплять файлы к сообщениям
Вы не можете скачивать файлы