Капитан Подштанник: Первый эпический фильм / Captain Underpants: The First Epic Movie (2017) BDRip 720p | Лицензия

 
Автор Сообщение

BOSS ®

Пол:

Стаж: 3 года

Сообщений: 7633

Откуда: ODESSA



Награды: 22 (Подробнее)

Top Seeder 5 (Количество: 1) Mega Releaser 1 (Количество: 1) Top Seeder 2 (Количество: 1)
Торрент-статистика

Создавать темы 12-Окт-2017 15:57

[Цитировать]

«50% Hero. 100% Cotton»
Информация о фильме
Название: Капитан Подштанник: Первый эпический фильм
Оригинальное название: Captain Underpants: The First Epic Movie
Год выхода: 2017
Жанр: Мультфильм, боевик, комедия, семейный
Режиссер: Дэвид Сорен
Роли озвучивают: Эд Хелмс, Кевин Харт, Ник Кролл, Томас Миддлдитч, Джордан Пил, Кристен Шаал, Ди Ди Решер, Брайан Посен, Дэвид Сорен, Мэл Родригез
О фильме:
Двое учеников начальной школы загипнотизировали директора школы так, что он стал супергероем, помогающим их одноклассникам.

Страна: США
Студия: DreamWorks Animation, Scholastic Productions
Продолжительность: 01:28:40
Перевод: Профессиональный (многоголосый, закадровый) | Blu-ray CEE
Файл
Качество: BDRip 720p
Формат: MKV
Кодек: MPEG-4 AVC
Видео: 1280x692 (1,85:1), 23.976 fps, MPEG-4 AVC ~ 5206 kbps avg, 0.245 bit/pixel
Аудио: DTS, 48,0 kHz, 6 ch, ~768.00 kbps avg | русский | Blu-ray CEE
Аудио: AC3, 48,0 kHz, 6 ch, ~448.00 kbps avg | русский | Blu-ray CEE
Аудио: AC3, 48,0 kHz, 6 ch, ~640.00 kbps avg | английский | Оригинал
Субтитры: Русские, английские (PGS)

Инфо-файл

Общее
Уникальный идентификатор : 184091775823382940527443392331952694032 (0x8A7EC94EB7688D28B53D6BF6EA882310)
Полное имя : Captain.Underpants.The.First.Epic.Movie.2017.720p.BluRay.x264.Rus.Eng.mkv
Формат : Matroska
Версия формата : Version 4 / Version 2
Размер файла : 4,38 Гбайт
Продолжительность : 1 ч. 28 м.
Общий поток : 7065 Кбит/сек
Дата кодирования : UTC 2017-10-12 04:19:06
Программа кодирования : mkvmerge v9.7.1 ('Pandemonium') 64bit
Библиотека кодирования : libebml v1.3.4 + libmatroska v1.4.5
Видео
Идентификатор : 1
Формат : AVC
Формат/Информация : Advanced Video Codec
Профиль формата : High@L4.1
Параметр CABAC формата : Да
Параметр ReFrames формата : 9 кадров
Идентификатор кодека : V_MPEG4/ISO/AVC
Продолжительность : 1 ч. 28 м.
Битрейт : 5206 Кбит/сек
Ширина : 1280 пикселей
Высота : 692 пикселя
Соотношение сторон : 1,85:1
Режим частоты кадров : Постоянный
Частота кадров : 23,976 (24000/1001) кадра/сек
Цветовое пространство : YUV
Субдискретизация насыщенности : 4:2:0
Битовая глубина : 8 бит
Тип развёртки : Прогрессивная
Бит/(Пиксели*Кадры) : 0.245
Размер потока : 3,22 Гбайт (74%)
Заголовок : Captain.Underpants.The.First.Epic.Movie.2017.720p.BluRay.x264.Rus.Eng
Библиотека кодирования : x264 core 152 r2851 ba24899
Настройки программы : cabac=1 / ref=9 / deblock=1:-3:-3 / analyse=0x3:0x113 / me=umh / subme=10 / psy=1 / psy_rd=1.00:0.00 / mixed_ref=1 / me_range=24 / chroma_me=1 / trellis=2 / 8x8dct=1 / cqm=1 / deadzone=21,11 / fast_pskip=0 / chroma_qp_offset=-1 / threads=12 / lookahead_threads=2 / sliced_threads=0 / nr=0 / decimate=1 / interlaced=0 / bluray_compat=0 / constrained_intra=0 / bframes=8 / b_pyramid=2 / b_adapt=2 / b_bias=0 / direct=3 / weightb=1 / open_gop=0 / weightp=2 / keyint=230 / keyint_min=23 / scenecut=40 / intra_refresh=0 / rc_lookahead=40 / rc=crf / mbtree=0 / crf=15.4 / qcomp=0.69 / qpmin=10 / qpmax=69 / qpstep=4 / vbv_maxrate=62500 / vbv_bufsize=78125 / crf_max=0.0 / nal_hrd=none / filler=0 / ip_ratio=1.30 / pb_ratio=1.20 / aq=1:0.75
Язык : English
Default : Да
Forced : Нет
Аудио #1
Идентификатор : 2
Формат : DTS
Формат/Информация : Digital Theater Systems
Режим : 16
Параметр Endianness формата : Big
Идентификатор кодека : A_DTS
Продолжительность : 1 ч. 28 м.
Вид битрейта : Постоянный
Битрейт : 768 Кбит/сек
Каналы : 6 каналов
Расположение каналов : Front: L C R, Side: L R, LFE
Частота : 48,0 КГц
Частота кадров : 93,750 кадра/сек (512 spf)
Битовая глубина : 24 бит
Метод сжатия : С потерями
Размер потока : 487 Мбайт (11%)
Заголовок : Blu-ray CEE
Язык : Russian
Default : Да
Forced : Нет
Аудио #2
Идентификатор : 3
Формат : AC-3
Формат/Информация : Audio Coding 3
Параметр Endianness формата : Big
Идентификатор кодека : A_AC3
Продолжительность : 1 ч. 28 м.
Вид битрейта : Постоянный
Битрейт : 448 Кбит/сек
Каналы : 6 каналов
Расположение каналов : Front: L C R, Side: L R, LFE
Частота : 48,0 КГц
Частота кадров : 31,250 кадров/сек (1536 spf)
Битовая глубина : 16 бит
Метод сжатия : С потерями
Размер потока : 284 Мбайт (6%)
Заголовок : Blu-ray CEE
Язык : Russian
Default : Нет
Forced : Нет
Аудио #3
Идентификатор : 4
Формат : AC-3
Формат/Информация : Audio Coding 3
Параметр Endianness формата : Big
Идентификатор кодека : A_AC3
Продолжительность : 1 ч. 28 м.
Вид битрейта : Постоянный
Битрейт : 640 Кбит/сек
Каналы : 6 каналов
Расположение каналов : Front: L C R, Side: L R, LFE
Частота : 48,0 КГц
Частота кадров : 31,250 кадров/сек (1536 spf)
Битовая глубина : 16 бит
Метод сжатия : С потерями
Размер потока : 406 Мбайт (9%)
Язык : English
Default : Нет
Forced : Нет
Текст #1
Идентификатор : 5
Формат : UTF-8
Идентификатор кодека : S_TEXT/UTF8
Идентификатор кодека/Информация : UTF-8 Plain Text
Продолжительность : 1 ч. 20 м.
Битрейт : 105 бит/сек
ElementCount : 1477
Размер потока : 62,7 Кбайт (0%)
Заголовок : Полные
Язык : Russian
Default : Нет
Forced : Нет
Текст #2
Идентификатор : 6
Формат : UTF-8
Идентификатор кодека : S_TEXT/UTF8
Идентификатор кодека/Информация : UTF-8 Plain Text
Продолжительность : 1 ч. 27 м.
Битрейт : 77 бит/сек
ElementCount : 1855
Размер потока : 49,9 Кбайт (0%)
Язык : English
Default : Да
Forced : Нет
Текст #3
Идентификатор : 7
Формат : UTF-8
Идентификатор кодека : S_TEXT/UTF8
Идентификатор кодека/Информация : UTF-8 Plain Text
Продолжительность : 1 ч. 27 м.
Битрейт : 87 бит/сек
ElementCount : 2122
Размер потока : 55,9 Кбайт (0%)
Заголовок : SDH
Язык : English
Default : Нет
Forced : Нет
Меню
00:00:00.000 : en:Chapter 1
00:03:54.359 : en:Chapter 2
00:06:58.918 : en:Chapter 3
00:10:08.441 : en:Chapter 4
00:12:58.653 : en:Chapter 5
00:15:08.658 : en:Chapter 6
00:17:44.981 : en:Chapter 7
00:20:42.783 : en:Chapter 8
00:23:45.257 : en:Chapter 9
00:25:44.668 : en:Chapter 10
00:29:26.264 : en:Chapter 11
00:33:55.659 : en:Chapter 12
00:38:24.177 : en:Chapter 13
00:42:10.194 : en:Chapter 14
00:46:12.061 : en:Chapter 15
00:52:17.801 : en:Chapter 16
00:55:02.841 : en:Chapter 17
00:57:37.621 : en:Chapter 18
01:00:57.445 : en:Chapter 19
01:04:30.116 : en:Chapter 20
01:08:24.934 : en:Chapter 21
01:11:42.089 : en:Chapter 22
01:15:44.373 : en:Chapter 23
01:19:03.322 : en:Chapter 24

Скриншоты

[Профиль] [ЛС]
Кто просматривает тему:

Форум Тема Автор Размер
Фильмы (HD Rips | 720p, 1080p) 30 свиданий (Татьяна Капитан) [2016, Россия, комедия, мелодрама, WEB-DL 1080p] Original Rus TorrentFilm 3.01 GB
Фильмы (HD Rips | 720p, 1080p) 30 свиданий (Татьяна Капитан) [2016, Россия, комедия, мелодрама, WEB-DL 720p] TorrentFilm 2.78 GB
Отечественная Классика Александр Сергеевич Пушкин - Капитанская дочка [Михаил Горевой, 2014] Magnat 233 MB
Путешествия и приключения Артуро Перес-Реверте - Приключения капитана Алатристе 6. Корсары Леванта (2016) MP3 Swager 532 MB
Путешествия и приключения Артуро Перес-Реверте - Приключения капитана Алатристе 7. Мост убийц (2016) MP3 Swager 366 MB
Сатира и юмор Виктор Конецкий - Странные капитаны [Владимир Самойлов, 2003] Magnat 655 MB
Отечественные мультфильмы Гугуцэ-капитан корабля (Константин Балан) [1981, Рисованный мультфильм, VHSRip] painkiller 138 MB
Кино СССР Два капитана / 6 серии из 6 (Евгений Карелов) [1976, СССР, киноповесть, экранизация, SATRip-AVC] E.S.P. 4.2 GB
Показать сообщения:    

Текущее время: Сегодня 18:58

Часовой пояс: GMT



Вы не можете начинать темы
Вы не можете отвечать на сообщения
Вы не можете редактировать свои сообщения
Вы не можете удалять свои сообщения
Вы не можете голосовать в опросах
Вы не можете прикреплять файлы к сообщениям
Вы не можете скачивать файлы