Капитан Подштанник: Первый эпический фильм / Captain Underpants: The First Epic Movie (2017) BDRip 720p | L

 
Автор Сообщение

BOSS ®

Пол:

Стаж: 3 года

Сообщений: 7605

Откуда: ODESSA



Награды: 22 (Подробнее)

Top Keeper 1 (Количество: 1) Top Seeder 5 (Количество: 1) Top Releaser 4 (Количество: 1)
Торрент-статистика

Создавать темы 05-Окт-2017 04:23

[Цитировать]

Информация о фильме
Наименование: Капитан Подштанник: Первый эпический фильм
Оригинальное наименование: Captain Underpants: The First Epic Movie
Произведено: США
Категория: мультфильм, боевик, комедия, семейный
Режиссер постановщик: Дэвид Сорен
В главных ролях: Эд Хелмс, Кевин Харт, Ник Кролл, Томас Миддлдитч, Джордан Пил, Кристен Шаал, Ди Ди Решер, Брайан Посен, Дэвид Сорен, Мэл Родригез
О фильме:
Двое учеников начальной школы загипнотизировали директора школы так, что он стал супергероем, помогающим их одноклассникам.

Файл
Качество: BDRip 720p
Видео данные: MKV, 1280x688 (1.85:1), 23.976 fps, 4000 Кбит/с
Аудио данные: Русский (MP3, 2 ch, 320 Кбит/с)
Перевод: Любительский многоголосый (GreenРай Studio)
Продолжительность: 01:29:34

Mediainfo

General
Unique ID : 216483027119178419964480263686699980188 (0xA2DD1D4BCFBFB51EBC99CF418AB5959C)
Complete name : D:МультикCaptain.Underpants.The.First.Epic.Movie.2017.P.BDRip.720p.mkv
Format : Matroska
Format version : Version 4 / Version 2
File size : 2.68 GiB
Duration : 1 h 29 min
Overall bit rate mode : Constant
Overall bit rate : 4 293 kb/s
Encoded date : UTC 2017-10-03 06:49:06
Writing application : mkvmerge v8.3.0 ('Over the Horizon') 64bit
Writing library : libebml v1.3.1 + libmatroska v1.4.2
Video
ID : 1
Format : AVC
Format/Info : Advanced Video Codec
Format profile : Main@L3.1
Format settings, CABAC : Yes
Format settings, ReFrames : 3 frames
Format settings, GOP : M=4, N=15
Codec ID : V_MPEG4/ISO/AVC
Duration : 1 h 29 min
Bit rate mode : Constant
Bit rate : 4 000 kb/s
Width : 1 280 pixels
Height : 688 pixels
Display aspect ratio : 1.85:1
Frame rate mode : Constant
Frame rate : 23.976 (23976/1000) FPS
Standard : NTSC
Color space : YUV
Chroma subsampling : 4:2:0
Bit depth : 8 bits
Scan type : Progressive
Bits/(Pixel*Frame) : 0.189
Stream size : 2.47 GiB (92%)
Language : English
Default : Yes
Forced : No
Color range : Limited
Audio
ID : 2
Format : MPEG Audio
Format version : Version 1
Format profile : Layer 3
Mode : Joint stereo
Codec ID : A_MPEG/L3
Codec ID/Hint : MP3
Duration : 1 h 29 min
Bit rate mode : Constant
Bit rate : 320 kb/s
Channel(s) : 2 channels
Sampling rate : 48.0 kHz
Frame rate : 41.667 FPS (1152 spf)
Compression mode : Lossy
Stream size : 204 MiB (7%)
Default : Yes
Forced : No
ВНИМАНИЕ! Присутствует реклама!

Скриншоты

Релиз от:
[Профиль] [ЛС]
Кто просматривает тему:

Форум Тема Автор Размер
Фильмы (HD Rips | 720p, 1080p) 30 свиданий (Татьяна Капитан) [2016, Россия, комедия, мелодрама, WEB-DL 1080p] Original Rus TorrentFilm 3.01 GB
Фильмы (HD Rips | 720p, 1080p) 30 свиданий (Татьяна Капитан) [2016, Россия, комедия, мелодрама, WEB-DL 720p] TorrentFilm 2.78 GB
Отечественная Классика Александр Сергеевич Пушкин - Капитанская дочка [Михаил Горевой, 2014] Magnat 233 MB
Путешествия и приключения Артуро Перес-Реверте - Приключения капитана Алатристе 6. Корсары Леванта (2016) MP3 Swager 532 MB
Путешествия и приключения Артуро Перес-Реверте - Приключения капитана Алатристе 7. Мост убийц (2016) MP3 Swager 366 MB
Сатира и юмор Виктор Конецкий - Странные капитаны [Владимир Самойлов, 2003] Magnat 655 MB
Отечественные мультфильмы Гугуцэ-капитан корабля (Константин Балан) [1981, Рисованный мультфильм, VHSRip] painkiller 138 MB
Кино СССР Два капитана / 6 серии из 6 (Евгений Карелов) [1976, СССР, киноповесть, экранизация, SATRip-AVC] E.S.P. 4.2 GB
Показать сообщения:    

Текущее время: Сегодня 14:30

Часовой пояс: GMT



Вы не можете начинать темы
Вы не можете отвечать на сообщения
Вы не можете редактировать свои сообщения
Вы не можете удалять свои сообщения
Вы не можете голосовать в опросах
Вы не можете прикреплять файлы к сообщениям
Вы не можете скачивать файлы