Капитан Лайтфут / Captain Lightfoot (1955) BDRip 1080p от MediaClub | L1

 
Автор Сообщение

sergej644 ®

Пол:

Стаж: 4 года 11 месяцев

Сообщений: 6035

Откуда: Soviet Union



Награды: Нет

Торрент-статистика

Создавать темы 17-Фев-2015 18:46

[Цитировать]

Информация о фильме
Название: Капитан Лайтфут
Оригинальное название: Captain Lightfoot
Год выхода: 1955
Жанр: Драма, мелодрама, приключения, военный, история
Режиссер: Дуглас Серк
В ролях: Рок Хадсон, Барбара Раш, Джефф Морроу, Кэтлин Райан, Финлэй Карри, Денис О’Ди, Джеффри Тун, Хилтон Эдвардс, Шила Бреннан, Гарри Голдблатт, Чарльз Б. Фицсаймонс, Кристофер Кэссон, Филип О’Флинн, Шэй Горман, Кеннет МакДональд, Роберт Берналь
О фильме:
1815 год. Ирландия охвачена отчаянным сопротивлением против иностранного господства. Майкл Мартин является членом ирландского тайного общества, он разочаровывается в результатах его деятельности и переходит к активным действиям, нападая на английских лендлордов и их управляющих, отнимая у них деньги, полученные ими с арендаторов-ирландцев. Он вынужден бежать из поместья Баллимор в Дублин, где встречает легендарного лидера ирландских повстанцев капитана Тандерболта.

Страна: США
Студия: Universal International Pictures
Продолжительность: 01:31:44
Перевод: Любительский одноголосый (Алёна)
Файл
Кодек: x264
Качество: BDRip 1080p
Видео: MPEG-4 AVC, 11.2 Мбит/с, 1920x816, 23.976 кадр/с
Звук:
Аудио #1: Русский (AC3, 2 ch, 160 Кбит/с) / Любительский одноголосый (Алёна)
Аудио #2: Английский (DTS, 2 ch, 768 Кбит/с)
Субтитры: Русские (перевод - Igor2138)

О релизе

Рип - Викс
Синхронизация перевода - Викс
Субтиры синхронизированы с видео
Сохранены оригинальные чаптеры как на Blu-Ray

MediaInfo

Общее
Уникальный идентификатор : 199778708789213412803634611617838269503 (0x964BFAD0F3127C0F88B462FAC8C2043F)
Полное имя : I:Готовые новые релизыCaptain.Lightfoot.1955.x264.BDRip.1080p-MediaClub.mkv
Формат : Matroska
Версия формата : Version 2
Размер файла : 7,77 Гбайт
Продолжительность : 1 ч. 31 м.
Общий поток : 12,1 Мбит/сек
Название фильма : Captain Lightfoot (1955) BDRip 1080p -MediaClub- [Викс]
Дата кодирования : UTC 2015-02-11 15:55:32
Программа кодирования : mkvmerge v5.8.0 ('No Sleep / Pillow') built on Sep 2 2012 15:37:04
Библиотека кодирования : libebml v1.2.3 + libmatroska v1.3.0
Видео
Идентификатор : 1
Формат : AVC
Формат/Информация : Advanced Video Codec
Профиль формата : High@L4.1
Параметр CABAC формата : Да
Параметр ReFrames формата : 5 кадров
Идентификатор кодека : V_MPEG4/ISO/AVC
Продолжительность : 1 ч. 31 м.
Битрейт : 11,2 Мбит/сек
Ширина : 1920 пикселей
Высота : 816 пикселей
Соотношение сторон : 2,35:1
Режим частоты кадров : Постоянный
Частота кадров : 23,976 кадра/сек
Цветовое пространство : YUV
Субдискретизация насыщенности : 4:2:0
Битовая глубина : 8 бит
Тип развёртки : Прогрессивная
Бит/(Пиксели*Кадры) : 0.298
Размер потока : 7,03 Гбайт (90%)
Библиотека кодирования : x264 core 125 r2208 d9d2288
Настройки программы : cabac=1 / ref=5 / deblock=1:-3:-3 / analyse=0x3:0x133 / me=umh / subme=11 / psy=1 / psy_rd=1.00:0.25 / mixed_ref=1 / me_range=48 / chroma_me=1 / trellis=2 / 8x8dct=1 / cqm=0 / deadzone=21,11 / fast_pskip=0 / chroma_qp_offset=-4 / threads=12 / lookahead_threads=2 / sliced_threads=0 / nr=0 / decimate=1 / interlaced=0 / bluray_compat=0 / constrained_intra=0 / bframes=8 / b_pyramid=2 / b_adapt=2 / b_bias=0 / direct=3 / weightb=1 / open_gop=0 / weightp=2 / keyint=240 / keyint_min=23 / scenecut=40 / intra_refresh=0 / rc=2pass / mbtree=0 / bitrate=11200 / ratetol=1.0 / qcomp=0.60 / qpmin=0 / qpmax=69 / qpstep=4 / cplxblur=20.0 / qblur=0.5 / ip_ratio=1.40 / pb_ratio=1.30 / aq=1:1.00
Язык : English
Default : Да
Forced : Нет
Аудио #1
Идентификатор : 2
Формат : AC-3
Формат/Информация : Audio Coding 3
Расширение режима : CM (complete main)
Параметр Endianness формата : Big
Идентификатор кодека : A_AC3
Продолжительность : 1 ч. 31 м.
Вид битрейта : Постоянный
Битрейт : 160 Кбит/сек
Каналы : 2 канала
Расположение каналов : Front: L R
Частота : 48,0 КГц
Битовая глубина : 16 бит
Метод сжатия : С потерями
Размер потока : 105 Мбайт (1%)
Заголовок : LO (Alena)
Язык : Russian
Default : Да
Forced : Нет
Аудио #2
Идентификатор : 3
Формат : DTS
Формат/Информация : Digital Theater Systems
Режим : 16
Параметр Endianness формата : Big
Идентификатор кодека : A_DTS
Продолжительность : 1 ч. 31 м.
Вид битрейта : Постоянный
Битрейт : 768 Кбит/сек
Каналы : 2 канала
Расположение каналов : Front: L R
Частота : 48,0 КГц
Битовая глубина : 16 бит
Метод сжатия : С потерями
Размер потока : 504 Мбайт (6%)
Язык : English
Default : Нет
Forced : Нет
Текст
Идентификатор : 4
Формат : UTF-8
Идентификатор кодека : S_TEXT/UTF8
Идентификатор кодека/Информация : UTF-8 Plain Text
Заголовок : Perevod [Igor2138]
Язык : Russian
Default : Нет
Forced : Нет
Меню
00:00:00.000 : en:00:00:00.000
00:08:16.663 : en:00:08:16.663
00:14:39.420 : en:00:14:39.420
00:21:41.383 : en:00:21:41.383
00:29:40.529 : en:00:29:40.529
00:37:16.067 : en:00:37:16.067
00:45:20.885 : en:00:45:20.885
00:52:04.204 : en:00:52:04.204
00:58:56.158 : en:00:58:56.158
01:06:45.919 : en:01:06:45.919
01:15:27.189 : en:01:15:27.189
01:21:17.164 : en:01:21:17.164
Семпл

Скриншоты

--
[Профиль] [ЛС]
Кто просматривает тему:

Форум Тема Автор Размер
Фильмы (HD Rips | 720p, 1080p) 30 свиданий (Татьяна Капитан) [2016, Россия, комедия, мелодрама, WEB-DL 1080p] Original Rus TorrentFilm 3.01 GB
Фильмы (HD Rips | 720p, 1080p) 30 свиданий (Татьяна Капитан) [2016, Россия, комедия, мелодрама, WEB-DL 720p] TorrentFilm 2.78 GB
Отечественная Классика Александр Сергеевич Пушкин - Капитанская дочка [Михаил Горевой, 2014] Magnat 233 MB
Путешествия и приключения Артуро Перес-Реверте - Приключения капитана Алатристе 6. Корсары Леванта (2016) MP3 Swager 532 MB
Путешествия и приключения Артуро Перес-Реверте - Приключения капитана Алатристе 7. Мост убийц (2016) MP3 Swager 366 MB
Сатира и юмор Виктор Конецкий - Странные капитаны [Владимир Самойлов, 2003] Magnat 655 MB
Отечественные мультфильмы Гугуцэ-капитан корабля (Константин Балан) [1981, Рисованный мультфильм, VHSRip] painkiller 138 MB
Отечественные cериалы Два капитана (01-06 из 06) (Евгений Карелов) [1976 г., Приключения, DVDRip] Шкипер 4.35 GB
Показать сообщения:    

Текущее время: Сегодня 22:36

Часовой пояс: GMT



Вы не можете начинать темы
Вы не можете отвечать на сообщения
Вы не можете редактировать свои сообщения
Вы не можете удалять свои сообщения
Вы не можете голосовать в опросах
Вы не можете прикреплять файлы к сообщениям
Вы не можете скачивать файлы