Капитан Конан / Capitaine Conan (1996) BDRip 720p | P, A

 
Автор Сообщение

sergej644 ®

Пол:

Стаж: 4 года 11 месяцев

Сообщений: 6046

Откуда: Soviet Union



Награды: Нет

Торрент-статистика

Создавать темы 13-Фев-2015 22:12

[Цитировать]

Информация о фильме
Название: Капитан Конан
Оригинальное название: Capitaine Conan
Год выхода: 1996
Жанр: драма, военный
Режиссер: Бертран Тавернье / Bertrand Tavernier
В ролях: Филипп Торретон, Самюэль Ле Бьян, Бернар Ле Кок, Катрин Риш, Франсуа Берлеан, Клод Риш, Андре Фалькон, Клод Броссе, Крина Муришан, Сесиль Вассор.
О фильме:
1918 год… Несмотря на то, что ужасная и кровопролитная Первая мировая война уже подходит к концу, боевые действия еще в самом разгаре. Офицер французской армии, командир разведроты капитан Конан — настоящий ас войны. Капитану и его отряду профессиональных сорвиголов поручают самые опасные и тяжелые операции. Подчиненные Конана боготворят своего вожака и готовы последовать за ним хоть в ад.
Отважный капитан и его команда — именно те люди, которые добыли Франции столь трудную победу на полях сражений. И поэтому Конан, честный и бесстрашный солдат, хронически не выносит «штабных крыс» и кабинетных вояк, плетущих коварные интриги и «выигрывающих» баталии за письменным столом. После того, как подразделение капитана переводят в освобожденный Бухарест, Конану предстоит новая, совершенно неожиданная битва, к которой отважный офицер оказался меньше всего подготовлен…

Страна: Франция
Студия: Canal+, Les Films Alain Sarde, Little Bear
Продолжительность: 02:12:21.856
Перевод: Профессиональный (многоголосый закадровый) R5 "Premier Digital"
Одноголосый закадровый Леонид Машинский
Файл
Кодек: h.264
Качество: BDRip 720p
Видео: 1280x544 (2.35:1), 24.000 fps, AVC, ~5154 Kbps, 0.308 bits/pixel
Звук:
Русский, 48.0 KHz, AC3, 6 ch, 448 Kbps R5 Premier Digital
Русский, 48.0 KHz, AC3, 2 ch, 192 Kbps Л. Машинский
Французский, 48.0 KHz, AC3, 6 ch, 640 Kbps
Субтитры:
Французские, PGS
Английские, PGS

MI

Общее
Уникальный идентификатор : 207219111062584873553099000332945950656 (0x9BE4F2F882C2D445A1102F073C8787C0)
Полное имя : G:FILMSKapitan_Konan.1996.BDRip720p.mkv
Формат : Matroska
Версия формата : Version 4 / Version 2
Размер файла : 5,98 Гбайт
Продолжительность : 2 ч. 12 м.
Общий поток : 6464 Кбит/сек
Дата кодирования : UTC 2015-02-13 17:35:34
Программа кодирования : mkvmerge v7.6.0 ('Garden of Dreams') 64bit built on Feb 8 2015 13:04:34
Библиотека кодирования : libebml v1.3.1 + libmatroska v1.4.2
DURATION : 02:07:45.658000000
NUMBER_OF_FRAMES : 3570
NUMBER_OF_BYTES : 17718852
_STATISTICS_WRITING_APP : mkvmerge v7.6.0 ('Garden of Dreams') 64bit built on Feb 8 2015 13:04:34
_STATISTICS_WRITING_DATE_UTC : 2015-02-13 17:35:34
_STATISTICS_TAGS : BPS DURATION NUMBER_OF_FRAMES NUMBER_OF_BYTES
Видео
Идентификатор : 1
Формат : AVC
Формат/Информация : Advanced Video Codec
Профиль формата : High@L4.1
Параметр CABAC формата : Да
Параметр ReFrames формата : 9 кадров
Идентификатор кодека : V_MPEG4/ISO/AVC
Продолжительность : 2 ч. 12 м.
Битрейт : 5154 Кбит/сек
Ширина : 1280 пикселей
Высота : 544 пикселя
Соотношение сторон : 2,35:1
Режим частоты кадров : Постоянный
Частота кадров : 24,000 кадра/сек
Цветовое пространство : YUV
Субдискретизация насыщенности : 4:2:0
Битовая глубина : 8 бит
Тип развёртки : Прогрессивная
Бит/(Пиксели*Кадры) : 0.308
Размер потока : 4,67 Гбайт (78%)
Библиотека кодирования : x264 core 142 r2431 ac76440
Настройки программы : cabac=1 / ref=9 / deblock=1:-3:-3 / analyse=0x3:0x133 / me=umh / subme=10 / psy=1 / psy_rd=1.10:0.10 / mixed_ref=1 / me_range=32 / chroma_me=1 / trellis=2 / 8x8dct=1 / cqm=0 / deadzone=21,11 / fast_pskip=0 / chroma_qp_offset=-6 / threads=8 / lookahead_threads=2 / sliced_threads=0 / nr=0 / decimate=0 / interlaced=0 / bluray_compat=0 / constrained_intra=0 / bframes=13 / b_pyramid=2 / b_adapt=2 / b_bias=0 / direct=3 / weightb=1 / open_gop=0 / weightp=2 / keyint=240 / keyint_min=24 / scenecut=40 / intra_refresh=0 / rc_lookahead=60 / rc=2pass / mbtree=0 / bitrate=5154 / ratetol=1.0 / qcomp=0.60 / qpmin=0 / qpmax=69 / qpstep=4 / cplxblur=20.0 / qblur=0.5 / vbv_maxrate=50000 / vbv_bufsize=62500 / nal_hrd=none / filler=0 / ip_ratio=1.40 / pb_ratio=1.30 / aq=1:1.00
Default : Нет
Forced : Нет
Основные цвета : BT.709
Характеристики трансфера : BT.709
Коэффициенты матрицы : BT.709
colour_range : Limited
DURATION : 02:12:21.834000000
NUMBER_OF_FRAMES : 190604
NUMBER_OF_BYTES : 5113882463
_STATISTICS_WRITING_APP : mkvmerge v7.6.0 ('Garden of Dreams') 64bit built on Feb 8 2015 13:04:34
_STATISTICS_WRITING_DATE_UTC : 2015-02-13 17:35:34
_STATISTICS_TAGS : BPS DURATION NUMBER_OF_FRAMES NUMBER_OF_BYTES
Аудио #1
Идентификатор : 2
Формат : AC-3
Формат/Информация : Audio Coding 3
Расширение режима : CM (complete main)
Параметр Endianness формата : Big
Идентификатор кодека : A_AC3
Продолжительность : 2 ч. 12 м.
Вид битрейта : Постоянный
Битрейт : 448 Кбит/сек
Каналы : 6 каналов
Расположение каналов : Front: L C R, Side: L R, LFE
Частота : 48,0 КГц
Битовая глубина : 16 бит
Метод сжатия : С потерями
Размер потока : 424 Мбайт (7%)
Заголовок : R5 Premier Digital
Язык : Russian
Default : Да
Forced : Нет
Аудио #2
Идентификатор : 3
Формат : AC-3
Формат/Информация : Audio Coding 3
Расширение режима : CM (complete main)
Параметр Endianness формата : Big
Идентификатор кодека : A_AC3
Продолжительность : 2 ч. 12 м.
Вид битрейта : Постоянный
Битрейт : 192 Кбит/сек
Каналы : 2 канала
Расположение каналов : Front: L R
Частота : 48,0 КГц
Битовая глубина : 16 бит
Метод сжатия : С потерями
Размер потока : 182 Мбайт (3%)
Заголовок : L. Mashinskiy
Язык : Russian
Default : Нет
Forced : Нет
Аудио #3
Идентификатор : 4
Формат : AC-3
Формат/Информация : Audio Coding 3
Расширение режима : CM (complete main)
Параметр Endianness формата : Big
Идентификатор кодека : A_AC3
Продолжительность : 2 ч. 12 м.
Вид битрейта : Постоянный
Битрейт : 640 Кбит/сек
Каналы : 6 каналов
Расположение каналов : Front: L C R, Side: L R, LFE
Частота : 48,0 КГц
Битовая глубина : 16 бит
Метод сжатия : С потерями
Размер потока : 606 Мбайт (10%)
Язык : French
Default : Нет
Forced : Нет
Текст #1
Идентификатор : 5
Формат : PGS
Режим смешивания : zlib
Идентификатор кодека : S_HDMV/PGS
Идентификатор кодека/Информация : The same subtitle format used on BDs/HD-DVDs
Язык : French
Default : Нет
Forced : Нет
Текст #2
Идентификатор : 6
Формат : PGS
Режим смешивания : zlib
Идентификатор кодека : S_HDMV/PGS
Идентификатор кодека/Информация : The same subtitle format used on BDs/HD-DVDs
Язык : English
Default : Нет
Forced : Нет
Меню
00:00:00.000 : en:00:00:00.000
00:06:52.000 : en:00:06:52.000
00:14:45.083 : en:00:14:45.083
00:20:01.416 : en:00:20:01.416
00:25:17.250 : en:00:25:17.250
00:31:32.083 : en:00:31:32.083
00:37:35.333 : en:00:37:35.333
00:45:35.791 : en:00:45:35.791
00:58:27.541 : en:00:58:27.541
01:06:27.583 : en:01:06:27.583
01:14:08.041 : en:01:14:08.041
01:25:39.750 : en:01:25:39.750
01:32:42.375 : en:01:32:42.375
01:36:22.791 : en:01:36:22.791
01:44:05.583 : en:01:44:05.583
01:51:36.375 : en:01:51:36.375
01:55:07.000 : en:01:55:07.000
01:58:15.500 : en:01:58:15.500
02:03:53.333 : en:02:03:53.333

X264 log 2nd pass

frame I:1010 Avg QP:16.85 size:103045
frame P:37706 Avg QP:19.10 size: 47233
frame B:151888 Avg QP:20.92 size: 21258

Скриншоты

[Профиль] [ЛС]
Кто просматривает тему:

Форум Тема Автор Размер
Фильмы (HD Rips | 720p, 1080p) 30 свиданий (Татьяна Капитан) [2016, Россия, комедия, мелодрама, WEB-DL 1080p] Original Rus TorrentFilm 3.01 GB
Фильмы (HD Rips | 720p, 1080p) 30 свиданий (Татьяна Капитан) [2016, Россия, комедия, мелодрама, WEB-DL 720p] TorrentFilm 2.78 GB
Отечественная Классика Александр Сергеевич Пушкин - Капитанская дочка [Михаил Горевой, 2014] Magnat 233 MB
Путешествия и приключения Артуро Перес-Реверте - Приключения капитана Алатристе 6. Корсары Леванта (2016) MP3 Swager 532 MB
Путешествия и приключения Артуро Перес-Реверте - Приключения капитана Алатристе 7. Мост убийц (2016) MP3 Swager 366 MB
Сатира и юмор Виктор Конецкий - Странные капитаны [Владимир Самойлов, 2003] Magnat 655 MB
Отечественные мультфильмы Гугуцэ-капитан корабля (Константин Балан) [1981, Рисованный мультфильм, VHSRip] painkiller 138 MB
Отечественные cериалы Два капитана (01-06 из 06) (Евгений Карелов) [1976 г., Приключения, DVDRip] Шкипер 4.35 GB
Показать сообщения:    

Текущее время: Сегодня 09:11

Часовой пояс: GMT



Вы не можете начинать темы
Вы не можете отвечать на сообщения
Вы не можете редактировать свои сообщения
Вы не можете удалять свои сообщения
Вы не можете голосовать в опросах
Вы не можете прикреплять файлы к сообщениям
Вы не можете скачивать файлы