Капитан Америка / Captain America (1990) BDRip 1080p | Театральная версия / Theatrical Cut

 
Автор Сообщение

Russian Mafia ®

Пол:

Стаж: 1 год 8 месяцев

Сообщений: 4255



Награды: 10 (Подробнее)

Mega Seeder 5 (Количество: 1) Mega Seeder 3 (Количество: 1) Top Releaser 4 (Количество: 1)
Торрент-статистика

Создавать темы 08-Сен-2015 10:10

[Цитировать]

Информация о фильме
Название: Капитан Америка
Оригинальное название: Captain America
Год выхода: 1990
Жанр: фантастика, фэнтези, боевик, триллер, военный
Режиссер: Альберт Пьюн
В ролях: Мэтт Салинджер, Ронни Кокс, Нед Битти, Дэррен МакГэвин, Майкл Нури, Скотт Полин, Ким Джиллинхэм, Мелинда Диллон, Билл Муми, Франческа Нери, Карла Кассола, Норберт Вайссер, Гэретт Рэтлиф Хенсон и др.
О фильме:
Итальянские фашисты вели интенсивные исследования в области создания нового типа человека, обладающего сверхъестественными способностями. Первый экземпляр, названный «Красный Череп», в силу ряда причин оказался и последним. Работавшая в этой области доктор Мария Вассели сумела перебраться в США, где продолжила исследования.
Вскоре американцы получили и своего суперчеловека. Как и его прототип, он тоже оказался единственным. Многоопытный «Красный Череп», плетущий сети международного заговора, и бесстрашный «Капитан Америка» вступают в смертельный поединок.

Страна: США, Югославия
Студия: 21st Century Film Corporation / Marvel Enterprises
Продолжительность: 01:37:04
Переводы:
Студийный (одноголосый закадровый) - [Владимир Летенков] - Студия: Ленфильм
Авторский (одноголосый закадровый) - [Михаил Иванов]
Авторский (одноголосый закадровый) - [Павел Прямостанов]
Файл
Тип релиза: BDRip 1080p
Контейнер: MKV
Видео: H.264, 1920x1080 (16:9), 23.976 fps, ~8164 Kbps, 0.164 bit/pixel
| Аудио #1: 48 kHz, AC3, 2ch, 192 Kbps | Rus | VO • Владимир Летенков - Студия: Ленфильм
| Аудио #2: 48 kHz, AC3, 2ch, 192 Kbps | Rus | АVO • Михаил Иванов
| Аудио #3: 48 kHz, AC3, 2ch, 192 Kbps | Rus | АVO • Павел Прямостанов
| Аудио #4: 48 kHz, DTS, 2ch, 1510 Kbps | Eng | Original-Релиз от: --

MediaInfo

General
Unique ID : 206435872328888513091841729351067820319 (0x9B4E1A51D8E89DB3B1E1D4D9EE96E11F)
Complete name : Captain.America.1990.BDRip.1080p.H.264.3xRUS.-ANTipiGo.mkv
Format : Matroska
Format version : Version 2
File size : 6.95 GiB
Duration : 1h 37mn
Overall bit rate : 10.3 Mbps
Movie name : Капитан Америка / Captain America / Театральная версия / Theatrical Cut / 1990 [Релиз от: ANTipiGo]
Encoded date : UTC 2013-05-27 23:18:23
Writing application : mkvmerge v5.2.1 ('A Far Off Place') built on Jan 2 2012 23:21:10
Writing library : libebml v1.2.3 + libmatroska v1.3.0
Video
ID : 1
Format : AVC
Format/Info : Advanced Video Codec
Format profile : High@L4.1
Format settings, CABAC : Yes
Format settings, ReFrames : 4 frames
Codec ID : V_MPEG4/ISO/AVC
Duration : 1h 37mn
Bit rate : 8 164 Kbps
Width : 1 920 pixels
Height : 1 080 pixels
Display aspect ratio : 16:9
Frame rate mode : Constant
Frame rate : 23.976 fps
Color space : YUV
Chroma subsampling : 4:2:0
Bit depth : 8 bits
Scan type : Progressive
Bits/(Pixel*Frame) : 0.164
Stream size : 5.40 GiB (78%)
Writing library : x264 core 132 r2309 3b1f1f7
Encoding settings : cabac=1 / ref=4 / deblock=1:0:0 / analyse=0x3:0x113 / me=umh / subme=8 / psy=1 / psy_rd=1.00:0.00 / mixed_ref=1 / me_range=16 / chroma_me=1 / trellis=1 / 8x8dct=1 / cqm=0 / deadzone=21,11 / fast_pskip=1 / chroma_qp_offset=-2 / threads=16 / lookahead_threads=2 / sliced_threads=0 / nr=0 / decimate=1 / interlaced=0 / bluray_compat=0 / constrained_intra=0 / bframes=3 / b_pyramid=2 / b_adapt=2 / b_bias=0 / direct=3 / weightb=1 / open_gop=0 / weightp=2 / keyint=240 / keyint_min=23 / scenecut=40 / intra_refresh=0 / rc_lookahead=50 / rc=2pass / mbtree=1 / bitrate=8164 / ratetol=1.0 / qcomp=0.60 / qpmin=0 / qpmax=69 / qpstep=4 / cplxblur=20.0 / qblur=0.5 / ip_ratio=1.40 / aq=1:1.00
Language : English
Default : Yes
Forced : No
Audio #1
ID : 2
Format : AC-3
Format/Info : Audio Coding 3
Mode extension : CM (complete main)
Format settings, Endianness : Big
Codec ID : A_AC3
Duration : 1h 37mn
Bit rate mode : Constant
Bit rate : 192 Kbps
Channel(s) : 2 channels
Channel positions : Front: L R
Sampling rate : 48.0 KHz
Bit depth : 16 bits
Compression mode : Lossy
Stream size : 133 MiB (2%)
Title : VO (В. Летенков) Студия: Ленфильм
Language : Russian
Default : Yes
Forced : No
Audio #2
ID : 3
Format : AC-3
Format/Info : Audio Coding 3
Mode extension : CM (complete main)
Format settings, Endianness : Big
Codec ID : A_AC3
Duration : 1h 37mn
Bit rate mode : Constant
Bit rate : 192 Kbps
Channel(s) : 2 channels
Channel positions : Front: L R
Sampling rate : 48.0 KHz
Bit depth : 16 bits
Compression mode : Lossy
Stream size : 133 MiB (2%)
Title : AVO (М. Иванов)
Language : Russian
Default : No
Forced : No
Audio #3
ID : 4
Format : AC-3
Format/Info : Audio Coding 3
Mode extension : CM (complete main)
Format settings, Endianness : Big
Codec ID : A_AC3
Duration : 1h 37mn
Bit rate mode : Constant
Bit rate : 192 Kbps
Channel(s) : 2 channels
Channel positions : Front: L R
Sampling rate : 48.0 KHz
Bit depth : 16 bits
Compression mode : Lossy
Stream size : 133 MiB (2%)
Title : AVO (П. Прямостанов)
Language : Russian
Default : No
Forced : No
Audio #4
ID : 5
Format : DTS
Format/Info : Digital Theater Systems
Mode : 16
Format settings, Endianness : Big
Codec ID : A_DTS
Duration : 1h 37mn
Bit rate mode : Constant
Bit rate : 1 509 Kbps
Channel(s) : 2 channels
Channel positions : Front: L R
Sampling rate : 48.0 KHz
Bit depth : 24 bits
Compression mode : Lossy
Stream size : 1.02 GiB (15%)
Title : Original
Language : English
Default : No
Forced : No
Menu
00:00:00.000 : en:00:00:00.000
00:08:35.056 : en:00:08:35.056
00:15:41.774 : en:00:15:41.774
00:23:47.426 : en:00:23:47.426
00:32:43.503 : en:00:32:43.503
00:43:32.026 : en:00:43:32.026
00:50:36.075 : en:00:50:36.075
00:57:38.997 : en:00:57:38.997
01:05:26.756 : en:01:05:26.756
01:12:41.065 : en:01:12:41.065
01:24:38.115 : en:01:24:38.115
01:33:03.828 : en:01:33:03.828
-
[Профиль] [ЛС]
Кто просматривает тему:

Форум Тема Автор Размер
Фильмы (HD Rips | 720p, 1080p) 30 свиданий (Татьяна Капитан) [2016, Россия, комедия, мелодрама, WEB-DL 1080p] Original Rus TorrentFilm 3.01 GB
Фильмы (HD Rips | 720p, 1080p) 30 свиданий (Татьяна Капитан) [2016, Россия, комедия, мелодрама, WEB-DL 720p] TorrentFilm 2.78 GB
Отечественная Классика Александр Сергеевич Пушкин - Капитанская дочка [Михаил Горевой, 2014] Magnat 233 MB
Путешествия и приключения Артуро Перес-Реверте - Приключения капитана Алатристе 6. Корсары Леванта (2016) MP3 Swager 532 MB
Путешествия и приключения Артуро Перес-Реверте - Приключения капитана Алатристе 7. Мост убийц (2016) MP3 Swager 366 MB
Сатира и юмор Виктор Конецкий - Странные капитаны [Владимир Самойлов, 2003] Magnat 655 MB
Отечественные мультфильмы Гугуцэ-капитан корабля (Константин Балан) [1981, Рисованный мультфильм, VHSRip] painkiller 138 MB
Отечественные cериалы Два капитана (01-06 из 06) (Евгений Карелов) [1976 г., Приключения, DVDRip] Шкипер 4.35 GB
Показать сообщения:    

Текущее время: Сегодня 16:20

Часовой пояс: GMT



Вы не можете начинать темы
Вы не можете отвечать на сообщения
Вы не можете редактировать свои сообщения
Вы не можете удалять свои сообщения
Вы не можете голосовать в опросах
Вы не можете прикреплять файлы к сообщениям
Вы не можете скачивать файлы