Капитан Алатристе / Alatriste (Агустин Диас Янес / Agustín Díaz Yanes) [2006, Испания, триллер, драма, мелодрама, приключения, военный, история, BDRip-AVC] Dub (Мосфильм) + 2x AVO (Сербин, Дольский) + Original (Spa) + Subs (Rus, Eng)

 
Автор Сообщение

TorrentFilm ®

Пол:

Стаж: 2 года

Сообщений: 7741



Награды: Нет

Торрент-статистика

Создавать темы 07-Апр-2015 00:03

[Цитировать]

Капитан Алатристе / Alatriste- Страна: Испания
Жанр: триллер, драма, мелодрама, приключения, военный, история
Год выпуска: 2006
Продолжительность: 02:25:02-Перевод №1: Профессиональный (дублированный) - Мосфильм
Перевод №2: Авторский (одноголосый закадровый) - Ю.Сербин
Перевод №3: Авторский (одноголосый закадровый) - А.Дольский - отдельно в раздаче
Оригинальная аудиодорожка: Spanish
Cубтитры: Русские (полные), English (full)
Навигация по главам: присутствует - 28 глав-Режиссер: Агустин Диас Янес / Agustín Díaz Yanes
В ролях: Вигго Мортенсен, Елена Анайя, Унакс Угальде, Эдуард Фернандес, Эдуардо Норьега, Ариадна Хиль, Хуан Эчанове, Хавьер Камара, Антонио Дечент, Бланка Портильо-Описание: Время и место действия — Испания семнадцатого века, эпоха правления Филиппа Четвертого. Этим слабым, подверженным чужому влиянию монархом, с легкостью манипулирует его развращенный, полный интриг двор, где всем заправляет влиятельный граф Ольварес. В этой империи, которая неуклонно движется к своему закату, и разворачиваются приключения Диего Алатристе, гордого солдата на службе Его Величества во Фландрии, а в мирное время — наемника в Мадриде и Севилье. Вместе с этими персонажем мы попадем в мир интриг и предательств, дуэлей и битв, ненависти и любви, разыгранных на фоне удивительно точно реконструированной эпохи.-
Download sample-Качество видео: BDRip-AVC | исх. BDRemux 1080p - thx: Jiraya87
Формат: MKV-Видео: 1 112x600 (1.85:1), 24.000 fps, H.264 ~4 200 kbps avg, 0.256 bit/pixel
Аудио №1: 48.0 kHz, AC3 Dolby Digital, 3/2 (L,C,R,l,r) + LFE ch, ~448 kbps | Профессиональный (дублированный) - Мосфильм
Аудио №2: 48.0 kHz, AC3 Dolby Digital, 3/2 (L,C,R,l,r) + LFE ch, ~448 kbps | Авторский (одноголосый закадровый) - Ю.Сербин
Аудио №3: 48.0 kHz, AC3 Dolby Digital, 3/2 (L,C,R,l,r) + LFE ch, ~448 kbps | Авторский (одноголосый закадровый) - А.Дольский - отдельно в раздаче
Аудио №4: 48.0 kHz, AC3 Dolby Digital, 3/2 (L,C,R,l,r) + LFE ch, ~448 kbps | Spanish
Субтитры №1: Русские (полные) | *.srt
Субтитры №2: English (full) | *.srt-

Дополнительные аудиодороги на Яндекс Диск

Аудио №5: 48.0 kHz, AC3 Dolby Digital, 3/2 (L,C,R,l,r) + LFE ch, ~448 kbps | Одноголосый закадровый - Вячеслав Замез
Аудио №6: 48.0 kHz, AC3 Dolby Digital, 3/2 (L,C,R,l,r) + LFE ch, ~448 kbps | Одноголосый закадровый - Данис Нурмухаметов
Аудио №7: 48.0 kHz, AC3 Dolby Digital, 3/2 (L,C,R,l,r) + LFE ch, ~448 kbps | Одноголосый закадровый - Алексей Наследников [MrRose]

MediaInfo

General
Unique ID : 200257483282820881376849082414867384095 (0x96A83038A2E379E1A2C720862EB3871F)
Complete name : D:\Фильмы\Рипы\Alatriste.2006.BDRip-AVC.eFK tRuAVC\Alatriste.2006.BDRip-AVC.eFK tRuAVC.mkv
Format : Matroska
Format version : Version 4 / Version 2
File size : 5.62 GiB
Duration : 2h 25mn
Overall bit rate : 5 549 Kbps
Movie name : Капитан Алатристе / Alatriste (2006) - Release for rutracker
Encoded date : UTC 2015-04-04 08:37:43
Writing application : mkvmerge v7.6.0 ('Garden of Dreams') 64bit built on Feb 8 2015 13:04:34
Writing library : libebml v1.3.1 + libmatroska v1.4.2
Attachements : cover.png
DURATION : 02:25:04.768000000
NUMBER_OF_FRAMES : 272024
NUMBER_OF_BYTES : 487467008
_STATISTICS_WRITING_APP : mkvmerge v7.6.0 ('Garden of Dreams') 64bit built on Feb 8 2015 13:04:34
_STATISTICS_WRITING_DATE_UT : 2015-04-04 08:37:43
_STATISTICS_TAGS : BPS DURATION NUMBER_OF_FRAMES NUMBER_OF_BYTES
Video
ID : 1
Format : AVC
Format/Info : Advanced Video Codec
Format profile : High@L4.1
Format settings, CABAC : Yes
Format settings, ReFrames : 11 frames
Codec ID : V_MPEG4/ISO/AVC
Duration : 2h 25mn
Bit rate : 4 095 Kbps
Width : 1 112 pixels
Height : 600 pixels
Display aspect ratio : 1.85:1
Frame rate mode : Constant
Frame rate : 24.000 fps
Color space : YUV
Chroma subsampling : 4:2:0
Bit depth : 8 bits
Scan type : Progressive
Bits/(Pixel*Frame) : 0.256
Stream size : 4.15 GiB (74%)
Title : eFK tRuAVC
Writing library : x264 core 146 r2538kMod 121396c
Encoding settings : cabac=1 / ref=11 / deblock=1:-2:-2 / analyse=0x3:0x133 / me=umh / subme=11 / psy=1 / fade_compensate=0.00 / psy_rd=1.05:0.00 / mixed_ref=1 / me_range=32 / chroma_me=1 / trellis=2 / 8x8dct=1 / cqm=0 / deadzone=21,11 / fast_pskip=0 / chroma_qp_offset=-2 / threads=12 / lookahead_threads=3 / sliced_threads=0 / nr=0 / decimate=1 / interlaced=0 / bluray_compat=0 / constrained_intra=0 / fgo=0 / bframes=16 / b_pyramid=2 / b_adapt=2 / b_bias=0 / direct=3 / weightb=1 / open_gop=0 / weightp=2 / keyint=250 / keyint_min=24 / scenecut=40 / intra_refresh=0 / rc_lookahead=60 / rc=crf / mbtree=0 / crf=19.0000 / qcomp=0.70 / qpmin=0 / qpmax=69 / qpstep=4 / vbv_maxrate=50000 / vbv_bufsize=62500 / crf_max=0.0 / nal_hrd=none / filler=0 / ip_ratio=1.40 / pb_ratio=1.30 / aq=3:0.70
Language : Spanish
Default : Yes
Forced : No
Color primaries : BT.709
Transfer characteristics : BT.709
Matrix coefficients : BT.709
Color range : Limited
DURATION : 02:25:04.750000000
NUMBER_OF_FRAMES : 208914
NUMBER_OF_BYTES : 4570657428
_STATISTICS_WRITING_APP : mkvmerge v7.6.0 ('Garden of Dreams') 64bit built on Feb 8 2015 13:04:34
_STATISTICS_WRITING_DATE_UT : 2015-04-04 08:37:43
_STATISTICS_TAGS : BPS DURATION NUMBER_OF_FRAMES NUMBER_OF_BYTES
Audio #1
ID : 2
Format : AC-3
Format/Info : Audio Coding 3
Mode extension : CM (complete main)
Format settings, Endianness : Big
Codec ID : A_AC3
Duration : 2h 25mn
Bit rate mode : Constant
Bit rate : 448 Kbps
Channel(s) : 6 channels
Channel positions : Front: L C R, Side: L R, LFE
Sampling rate : 48.0 KHz
Bit depth : 16 bits
Compression mode : Lossy
Stream size : 465 MiB (8%)
Title : Dub (Мосфильм)
Language : Russian
Default : Yes
Forced : No
Audio #2
ID : 3
Format : AC-3
Format/Info : Audio Coding 3
Mode extension : CM (complete main)
Format settings, Endianness : Big
Codec ID : A_AC3
Duration : 2h 25mn
Bit rate mode : Constant
Bit rate : 448 Kbps
Channel(s) : 6 channels
Channel positions : Front: L C R, Side: L R, LFE
Sampling rate : 48.0 KHz
Bit depth : 16 bits
Compression mode : Lossy
Stream size : 465 MiB (8%)
Title : AVO (Сербин)
Language : Russian
Default : No
Forced : No
Audio #3
ID : 4
Format : AC-3
Format/Info : Audio Coding 3
Mode extension : CM (complete main)
Format settings, Endianness : Big
Codec ID : A_AC3
Duration : 2h 25mn
Bit rate mode : Constant
Bit rate : 448 Kbps
Channel(s) : 6 channels
Channel positions : Front: L C R, Side: L R, LFE
Sampling rate : 48.0 KHz
Bit depth : 16 bits
Compression mode : Lossy
Stream size : 465 MiB (8%)
Language : Spanish
Default : No
Forced : No
Text #1
ID : 5
Format : UTF-8
Codec ID : S_TEXT/UTF8
Codec ID/Info : UTF-8 Plain Text
Title : полные
Language : Russian
Default : No
Forced : No
Text #2
ID : 6
Format : UTF-8
Codec ID : S_TEXT/UTF8
Codec ID/Info : UTF-8 Plain Text
Title : full
Language : English
Default : No
Forced : No
Menu
00:00:00.000 : en:Chapter 1
00:01:19.958 : en:Chapter 2
00:09:19.958 : en:Chapter 3
00:09:09.500 : en:Chapter 4
00:13:01.083 : en:Chapter 5
00:18:34.500 : en:Chapter 6
00:21:09.166 : en:Chapter 7
00:24:28.416 : en:Chapter 8
00:30:07.125 : en:Chapter 9
00:34:39.416 : en:Chapter 10
00:40:32.166 : en:Chapter 11
00:49:58.625 : en:Chapter 12
00:55:01.833 : en:Chapter 13
01:01:20.875 : en:Chapter 14
01:04:11.083 : en:Chapter 15
01:09:24.833 : en:Chapter 16
01:17:03.208 : en:Chapter 17
01:20:36.583 : en:Chapter 18
01:26:29.083 : en:Chapter 19
01:31:36.208 : en:Chapter 20
01:40:08.500 : en:Chapter 21
01:52:09.791 : en:Chapter 22
01:57:10.875 : en:Chapter 23
02:01:14.958 : en:Chapter 24
02:03:54.000 : en:Chapter 25
02:09:22.583 : en:Chapter 26
02:14:55.625 : en:Chapter 27
02:17:09.667 : en:Chapter 28

x264 log

x264 [info]: frame I:1140 Avg QP:17.26 size: 87705
x264 [info]: frame P:40559 Avg QP:19.28 size: 42764
x264 [info]: frame B:167215 Avg QP:21.54 size: 16363
x264 [info]: consecutive B-frames: 1.1% 1.4% 4.4% 13.0% 16.0% 50.9% 8.2% 1.5% 2.1% 0.7% 0.4% 0.2% 0.0% 0.0% 0.0% 0.0% 0.0%
x264 [info]: mb I I16..4: 6.0% 79.8% 14.2%
x264 [info]: mb P I16..4: 0.4% 11.0% 1.1% P16..4: 26.6% 34.5% 16.8% 1.9% 0.1% skip: 7.6%
x264 [info]: mb B I16..4: 0.0% 1.0% 0.1% B16..8: 34.5% 23.1% 5.7% direct: 7.4% skip:28.1% L0:44.4% L1:42.8% BI:12.8%
x264 [info]: 8x8 transform intra:86.1% inter:55.9%
x264 [info]: direct mvs spatial:100.0% temporal:0.0%
x264 [info]: coded y,uvDC,uvAC intra: 90.6% 84.5% 63.2% inter: 39.1% 22.9% 4.6%
x264 [info]: i16 v,h,dc,p: 63% 11% 7% 20%
x264 [info]: i8 v,h,dc,ddl,ddr,vr,hd,vl,hu: 9% 8% 8% 10% 15% 13% 14% 11% 12%
x264 [info]: i4 v,h,dc,ddl,ddr,vr,hd,vl,hu: 14% 9% 6% 8% 14% 13% 13% 10% 12%
x264 [info]: i8c dc,h,v,p: 42% 23% 17% 17%
x264 [info]: Weighted P-Frames: Y:6.5% UV:3.6%
x264 [info]: ref P L0: 36.2% 10.0% 19.5% 7.6% 7.0% 4.8% 4.9% 2.6% 2.7% 2.1% 2.4% 0.2% 0.0%
x264 [info]: ref B L0: 67.0% 12.8% 6.5% 3.8% 2.8% 2.5% 2.0% 1.4% 0.8% 0.4%
x264 [info]: ref B L1: 93.1% 6.9%
x264 [info]: kb/s:4200.61
x264 [total]: encoded 208914 frames, 7.07 fps, 4200.61 kb/s, duration 8:12:08.93
ComparisonSource

Encode
http://torrentfilm.net/forum/viewtopic.php?t=2751862 http://screenshotcomparison.com/comparison/120125
  • За дубляж и сабы огромное спасибо Skazhutin.
  • За предоставление французского исходника спасибо suzaku, а за финансирование спасибо огромное arxivariys.
[Профиль] [ЛС]

Создавать темы 06-Авг-2015 22:37 (спустя 3 месяца 29 дней)

Топик был перенесен из форума Фильмы до 2014 года в форум Фильмы до 2012 года
sergej644
 
Кто просматривает тему:

Форум Тема Автор Размер
Фильмы (HD Rips | 720p, 1080p) 30 свиданий (Татьяна Капитан) [2016, Россия, комедия, мелодрама, WEB-DL 1080p] Original Rus TorrentFilm 3.01 GB
Фильмы (HD Rips | 720p, 1080p) 30 свиданий (Татьяна Капитан) [2016, Россия, комедия, мелодрама, WEB-DL 720p] TorrentFilm 2.78 GB
Отечественная Классика Александр Сергеевич Пушкин - Капитанская дочка [Михаил Горевой, 2014] Magnat 233 MB
Путешествия и приключения Артуро Перес-Реверте - Приключения капитана Алатристе 6. Корсары Леванта (2016) MP3 Swager 532 MB
Путешествия и приключения Артуро Перес-Реверте - Приключения капитана Алатристе 7. Мост убийц (2016) MP3 Swager 366 MB
Сатира и юмор Виктор Конецкий - Странные капитаны [Владимир Самойлов, 2003] Magnat 655 MB
Отечественные мультфильмы Гугуцэ-капитан корабля (Константин Балан) [1981, Рисованный мультфильм, VHSRip] painkiller 138 MB
Отечественные cериалы Два капитана (01-06 из 06) (Евгений Карелов) [1976 г., Приключения, DVDRip] Шкипер 4.35 GB
Показать сообщения:    

Текущее время: Сегодня 22:34

Часовой пояс: GMT



Вы не можете начинать темы
Вы не можете отвечать на сообщения
Вы не можете редактировать свои сообщения
Вы не можете удалять свои сообщения
Вы не можете голосовать в опросах
Вы не можете прикреплять файлы к сообщениям
Вы не можете скачивать файлы