Каникулы / Vacation (2015) BDRip 1080p | Лицензия

 
Автор Сообщение

BOSS ®

Пол:

Стаж: 2 года 1 месяц

Сообщений: 3735

Откуда: ODESSA



Награды: 20 (Подробнее)

Top Seeder 2 (Количество: 1) Top Seeder 5 (Количество: 1) Mega Seeder 5 (Количество: 1)
Торрент-статистика

Создавать темы 20-Янв-2016 16:26

[Цитировать]

Информация о фильме
Название: Каникулы
Оригинальное название: Vacation
Год выхода: 2015
Жанр: комедия, приключения
Режиссер: Джон Фрэнсис Дейли, Джонатан М. Голдштейн
В ролях: Эд Хелмс, Кристина Эпплгейт, Скайлер Джизондо, Стил Стеббинс, Крис Хемсворт, Лесли Манн, Чеви Чейз, Беверли Д’Анджело, Чарли Дэй, Катрин Миссал
О фильме: Расти Гризвольд — молодой отец и примерный семьянин, который очень хочет сплотить семью и воссоздать каникулы из своего детства. Вместе с супругой и двумя сыновьями он решает совершить незабываемое путешествие через всю страну, конечной целью которого станет самый лучший тематический парк Америки. Все тщательно спланировав, они отправляются в дорогу, надеясь, что их ждет очень веселое и увлекательное путешествие.
В начале пути все происходит как нельзя лучше, но чем дальше они отдаляются от дома, тем больше проблем их ждет впереди. Все пошло совсем не так, как планировал Расти, но он не собирается останавливаться и готов сделать все возможное для того, чтобы добраться до пункта назначения и подарить своей семье лучшие каникулы...

Выпущено: Warner Bros.
Продолжительность: 01:39:02
Перевод: Дублированный (лицензия)
Файл
Кодек: x264
Качество: BDRip (источник: Blu-ray Disc)
Видео: 1920x800 (2,40:1), 23.976 fps, 9940 kbps
Аудио #1: AC-3, 6 ch, 640 kbps (Rus)
Аудио #2: AC-3, 6 ch, 640 kbps (Eng)
Субтитры: Русские (форс,полные), Английские
Скачать: сэмпл
Скриншоты

MI

General
Unique ID : 172509280917215597091051317581618567469 (0x81C814380DD8B9B78E9810F379C7592D)
Complete name : Z:Vacation.2015.BDRip.1080p.Rus.Eng.mkv
Format : Matroska
Format version : Version 2
File size : 7.76 GiB
Duration : 1h 39mn
Overall bit rate : 11.2 Mbps
Movie name : Каникулы / Vacation (2015)
Encoded date : UTC 2016-01-08 19:39:14
Writing application : mkvmerge v5.8.0 ('No Sleep / Pillow') built on Sep 2 2012 15:37:04
Writing library : libebml v1.2.3 + libmatroska v1.3.0
Video
ID : 1
Format : AVC
Format/Info : Advanced Video Codec
Format profile : High@L4.1
Format settings, CABAC : Yes
Format settings, ReFrames : 5 frames
Codec ID : V_MPEG4/ISO/AVC
Duration : 1h 39mn
Bit rate : 9 940 Kbps
Width : 1 920 pixels
Height : 800 pixels
Display aspect ratio : 2.40:1
Frame rate mode : Constant
Frame rate : 23.976 fps
Color space : YUV
Chroma subsampling : 4:2:0
Bit depth : 8 bits
Scan type : Progressive
Bits/(Pixel*Frame) : 0.270
Stream size : 6.72 GiB (87%)
Title : Каникулы / Vacation (2015)
Writing library : x264 core 148 r2638 7599210
Encoding settings : cabac=1 / ref=5 / deblock=1:-3:-3 / analyse=0x3:0x133 / me=umh / subme=11 / psy=1 / psy_rd=1.00:0.00 / mixed_ref=1 / me_range=32 / chroma_me=1 / trellis=2 / 8x8dct=1 / cqm=0 / deadzone=21,11 / fast_pskip=0 / chroma_qp_offset=-2 / threads=12 / lookahead_threads=3 / sliced_threads=0 / nr=0 / decimate=0 / interlaced=0 / bluray_compat=0 / constrained_intra=0 / bframes=10 / b_pyramid=2 / b_adapt=2 / b_bias=0 / direct=3 / weightb=1 / open_gop=0 / weightp=2 / keyint=240 / keyint_min=23 / scenecut=40 / intra_refresh=0 / rc=2pass / mbtree=0 / bitrate=9940 / ratetol=1.0 / qcomp=0.60 / qpmin=0 / qpmax=69 / qpstep=4 / cplxblur=20.0 / qblur=0.5 / ip_ratio=1.40 / pb_ratio=1.30 / aq=1:0.70
Language : English
Default : Yes
Forced : No
Audio #1
ID : 2
Format : AC-3
Format/Info : Audio Coding 3
Mode extension : CM (complete main)
Format settings, Endianness : Big
Codec ID : A_AC3
Duration : 1h 39mn
Bit rate mode : Constant
Bit rate : 640 Kbps
Channel(s) : 6 channels
Channel positions : Front: L C R, Side: L R, LFE
Sampling rate : 48.0 KHz
Bit depth : 16 bits
Compression mode : Lossy
Stream size : 453 MiB (6%)
Title : Дубляж, Blu-ray CEE
Language : Russian
Default : Yes
Forced : No
Audio #2
ID : 3
Format : AC-3
Format/Info : Audio Coding 3
Mode extension : CM (complete main)
Format settings, Endianness : Big
Codec ID : A_AC3
Duration : 1h 39mn
Bit rate mode : Constant
Bit rate : 640 Kbps
Channel(s) : 6 channels
Channel positions : Front: L C R, Side: L R, LFE
Sampling rate : 48.0 KHz
Bit depth : 16 bits
Compression mode : Lossy
Stream size : 453 MiB (6%)
Title : English
Language : English
Default : No
Forced : No
Text #1
ID : 4
Format : UTF-8
Codec ID : S_TEXT/UTF8
Codec ID/Info : UTF-8 Plain Text
Title : Russian (Forced)
Language : Russian
Default : Yes
Forced : No
Text #2
ID : 5
Format : UTF-8
Codec ID : S_TEXT/UTF8
Codec ID/Info : UTF-8 Plain Text
Title : Russian
Language : Russian
Default : No
Forced : No
Text #3
ID : 6
Format : UTF-8
Codec ID : S_TEXT/UTF8
Codec ID/Info : UTF-8 Plain Text
Title : English
Language : English
Default : No
Forced : No
Menu
00:00:00.000 : :Chapter 01
00:11:56.674 : :Chapter 02
00:20:55.379 : :Chapter 03
00:29:27.140 : :Chapter 04
00:40:54.618 : :Chapter 05
00:47:55.664 : :Chapter 06
01:00:23.286 : :Chapter 07
01:09:41.802 : :Chapter 08
01:20:52.472 : :Chapter 09
01:28:00.441 : :Chapter 10
01:34:51.936 : :Chapter 11

x264

x264 [info]: frame I:1232 Avg QP:17.59 size:237876
x264 [info]: frame P:29974 Avg QP:18.51 size:102563
x264 [info]: frame B:111263 Avg QP:20.71 size: 35210
x264 [info]: consecutive B-frames: 1.6% 2.0% 6.1% 26.2% 16.5% 31.6% 8.4% 6.1% 1.0% 0.2% 0.3%
x264 [info]: frame I:1232 Avg QP:16.45 size:275751
x264 [info]: frame P:29974 Avg QP:18.95 size:101999
x264 [info]: frame B:111263 Avg QP:20.83 size: 35778
x264 [info]: consecutive B-frames: 1.6% 2.0% 6.1% 26.2% 16.5% 31.6% 8.4% 6.1% 1.0% 0.2% 0.3%
[Профиль] [ЛС]
Показать сообщения:    

Текущее время: Сегодня 06:17

Часовой пояс: GMT



Вы не можете начинать темы
Вы не можете отвечать на сообщения
Вы не можете редактировать свои сообщения
Вы не можете удалять свои сообщения
Вы не можете голосовать в опросах
Вы не можете прикреплять файлы к сообщениям
Вы не можете скачивать файлы