Каникулы / Vacation (Джон Фрэнсис Дейли / John Francis Daley, Джонатан М. Голдштейн / Jonathan M. Goldstein) [2015, США, комедия, приключения, BDRip] Dub + Sub Rus, Eng, Ukr

 
Автор Сообщение

TorrentFilm ®

Пол:

Стаж: 1 год 11 месяцев

Сообщений: 7741



Награды: Нет

Торрент-статистика

Создавать темы 17-Дек-2015 00:10

[Цитировать]

--Каникулы / Vacation--«И что могло пойти не так»- Страна: США
Жанр: комедия, приключения
Год выпуска: 2015
Продолжительность: 01:39:02-Перевод: Профессиональный (дублированный) R5
Cубтитры: Субтитры: русские (полные, форсированные), английские (полные, SDH. SDH-Colored) + украинские (форсированные)-Режиссер: Джон Фрэнсис Дейли / John Francis Daley, Джонатан М. Голдштейн / Jonathan M. Goldstein
В ролях: Эд Хелмс, Кристина Эпплгейт, Скайлер Джизондо, Стил Стеббинс, Крис Хемсворт, Лесли Манн, Чеви Чейз, Беверли Д’Анджело, Чарли Дэй, Катрин Миссал
Описание: Расти Гризвольд — молодой отец и примерный семьянин, который очень хочет сплотить семью и воссоздать каникулы из своего детства. Вместе с супругой и двумя сыновьями он решает совершить незабываемое путешествие через всю страну, конечной целью которого станет самый лучший тематический парк Америки. Все тщательно спланировав, они отправляются в дорогу, надеясь, что их ждет очень веселое и увлекательное путешествие.
В начале пути все происходит как нельзя лучше, но чем дальше они отдаляются от дома, тем больше проблем их ждет впереди. Все пошло совсем не так, как планировал Расти, но он не собирается останавливаться и готов сделать все возможное для того, чтобы добраться до пункта назначения и подарить своей семье лучшие каникулы…-| Сэмпл | IMDB | КиноПоиск |

Автор рипа: sociolog_melvas
Качество видео: BDRip (источник: HDClub / BDRemux / 1080p)
Формат видео: AVI
Видео: 720x304 (2.37:1), 23,976 fps, XviD build 65 ~1704 kbps avg, 0.33 bit/pixel
Аудио: 48 kHz, AC3 Dolby Digital, 3/2 (L,C,R,l,r) + LFE ch, ~384 kbps avg
Формат субтитров: softsub (SRT)

MediaInfo

General
Complete name : D:\MOVIES\Kanikuly.2015.RUS.BDRip.XviD.AC3.-HQCLUB\Kanikuly.2015.RUS.BDRip.XviD.AC3.-HQCLUB.avi
Format : AVI
Format/Info : Audio Video Interleave
File size : 1.45 GiB
Duration : 1h 39mn
Overall bit rate : 2 098 Kbps
Movie name : Каникулы / Vacation (2015) BDRip
Genre : комедия, приключения
Writing application : VirtualDubMod 1.5.10.2 (build 2540/release)
Comment : 14.12.2015
Video
ID : 0
Format : MPEG-4 Visual
Format profile : Advanced Simple@L5
Format settings, BVOP : 1
Format settings, QPel : No
Format settings, GMC : No warppoints
Format settings, Matrix : Custom
Codec ID : XVID
Codec ID/Hint : XviD
Duration : 1h 39mn
Bit rate : 1 705 Kbps
Width : 720 pixels
Height : 304 pixels
Display aspect ratio : 2.35:1
Frame rate : 23.976 fps
Color space : YUV
Chroma subsampling : 4:2:0
Bit depth : 8 bits
Scan type : Progressive
Compression mode : Lossy
Bits/(Pixel*Frame) : 0.325
Stream size : 1.18 GiB (81%)
Writing library : XviD 65
Audio
ID : 1
Format : AC-3
Format/Info : Audio Coding 3
Mode extension : CM (complete main)
Format settings, Endianness : Big
Codec ID : 2000
Duration : 1h 39mn
Bit rate mode : Constant
Bit rate : 384 Kbps
Channel(s) : 6 channels
Channel positions : Front: L C R, Side: L R, LFE
Sampling rate : 48.0 KHz
Compression mode : Lossy
Stream size : 272 MiB (18%)
Alignment : Split accross interleaves
Interleave, duration : 42 ms (1.00 video frame)
Interleave, preload duration : 500 ms

Скриншот c названием фильма

Скриншоты

-
[Профиль] [ЛС]
Показать сообщения:    

Текущее время: Сегодня 20:03

Часовой пояс: GMT



Вы не можете начинать темы
Вы не можете отвечать на сообщения
Вы не можете редактировать свои сообщения
Вы не можете удалять свои сообщения
Вы не можете голосовать в опросах
Вы не можете прикреплять файлы к сообщениям
Вы не можете скачивать файлы