Каникулы / Vacation (Джон Фрэнсис Дейли, Джонатан М. Голдштейн / John Francis Daley, Jonathan M. Goldstein) [2015, США, Комедия, приключения, BDRip-AVC] Dub + Sub Rus,Eng + Original Eng

 
Автор Сообщение

TorrentFilm ®

Пол:

Стаж: 2 года

Сообщений: 7741



Награды: Нет

Торрент-статистика

Создавать темы 31-Окт-2015 00:09

[Цитировать]

КаникулыVacation«И что могло пойти не так»

Страна: США
Жанр: Комедия, приключения
Год выпуска: 2015
Продолжительность: 01:39:02
Перевод: Профессиональный (дублированный) iTunes
Cубтитры: русские,английские
Оригинальная аудиодорожка: английский
Режиссер: Джон Фрэнсис Дейли, Джонатан М. Голдштейн / John Francis Daley, Jonathan M. Goldstein
В ролях: Эд Хелмс, Кристина Эпплгейт, Скайлер Джизондо, Стил Стеббинс, Крис Хемсворт, Лесли Манн, Чеви Чейз, Беверли Д’Анджело, Чарли Дэй, Катрин Миссал
Описание: Расти Гризвольд — молодой отец и примерный семьянин, который очень хочет сплотить семью и воссоздать каникулы из своего детства. Вместе с супругой и двумя сыновьями он решает совершить незабываемое путешествие через всю страну, конечной целью которого станет самый лучший тематический парк Америки. Все тщательно спланировав, они отправляются в дорогу, надеясь, что их ждет очень веселое и увлекательное путешествие.
В начале пути все происходит как нельзя лучше, но чем дальше они отдаляются от дома, тем больше проблем их ждет впереди. Все пошло совсем не так, как планировал Расти, но он не собирается останавливаться и готов сделать все возможное для того, чтобы добраться до пункта назначения и подарить своей семье лучшие каникулы...
Доп. информация:
Релиз группы:
Качество видео: BDRip-AVC | Каникулы / Vacation (2015) 1080p BD-Remux| HD club
Формат видео: MKV
Видео: 1142x476 (2:40:1), 23,976 fps, 3471 Кbps, 0.266 bit/pixe
Аудио: 48 kHz, AC3 Dolby Digital, 3/2 (L,C,R,l,r) + LFE ch, ~384.00 kbps avg DUB
Аудио 2: 48 kHz, AC3 Dolby Digital, 3/2 (L,C,R,l,r) + LFE ch, ~448.00 kbps avg ENG
Формат субтитров: softsub (SRT)
Доп. информация о субтитрах: отключаемые

Знаете ли Вы что

• Крис Хемсворт родился в 1983 году, именно в этом году вышел первый фильм этой серии — «Каникулы».
• Сцена сплава по реке снималась на трех различных локациях.
• Первоначально Джон Фрэнсис Дейли и Джонатан М. Голдштейн были взяты в проект лишь как сценаристы, и они даже не предполагали, что в итоге станут еще и режиссерами этого фильма.
• В начале фильма Расти просматривает фотоальбом, фотографии в котором – это кадры из предыдущих четырех фильмов серии: «Каникулы» (1983), «Европейские каникулы» (1985), «Рождественские каникулы» (1989) и «Каникулы в Вегасе» (1997).
• На роль, которая досталась Эду Хелмсу, также претендовали Джейсон Судейкис, Адам Сэндлер и Майкл Розенбаум.
• Американские горки, показанные в трейлере, это аттракцион «The Ninja» из парка развлечений «Six Flags Over Georgia». Однако в самом фильме были использованы американские горки «Colossus and Revolution» из парка «Six Flags Magic Mountain».
• Первый фильм серии снятый в формате 2,35:1.
• Режиссер фильма Джон Фрэнсис Дейли снялся в роли оператора аттракциона «Велоцираптор».
• Фургон, на котором путешествуют Гризвольды, это модифицированная Toyota Previa.

Ошибки в фильме

• После того, как Гризвольды отправляются в Сан-Франциско, они проезжают по мосту Золотые Ворота. Но поскольку ранее они собирались в Южную Калифорнию, и только проехали Четыре угла, они определенно едут с южной стороны, где они точно не проезжали бы мост Золотые Ворота, так как он находится к северу от Сан-Франциско.
• Пирамида в Мемфисе, штат Теннесси, видна слева по направлению движения Гризвольдов. Однако так как они едут в Калифорнию, то в этой сцене они должны были выезжать из Мемфиса, а не приезжать в него.
• Когда Гризвольды кушают с Одри и Стоуном, корова на фоне то исчезает, то появляется.
• В одной из сцен Расс утверждает, что пилот поднял самолет (позже упоминаемый как А318) на высоту 60 000 футов. Это невозможно, так как максимальная высота для самолетов такого типа составляет примерно 40 000 футов.
• Когда Кевин говорит по портативной радиостанции, то четко видно, что он не нажимает кнопку для передачи сигнала.
• Когда Расти решил сделать дрифт на 180 градусов, машину перевернуло пару раз и боковые зеркала с обоих сторон машины получили повреждения. На следующий день зеркала в идеальном состоянии.

MediaInfo

General
Unique ID : 248920173804749241469220046963873916362 (0xBB44481A2A8A974C9E9F6F3A676FA5CA)
Complete name : D:\Мои рипы\Каникулы\Vacation by_IVAN@190282.mkv
Format : Matroska
Format version : Version 4 / Version 2
File size : 3.04 GiB
Duration : 1h 39mn
Overall bit rate : 4 390 Kbps
Encoded date : UTC 2015-10-28 17:43:36
Writing application : mkvmerge v8.4.0 ('A better way to fly') 64bit
Writing library : libebml v1.3.1 + libmatroska v1.4.2
Attachements : cover.jpg
DURATION : 01:36:08.471000000
NUMBER_OF_FRAMES : 1677
NUMBER_OF_BYTES : 60910
_STATISTICS_WRITING_APP : mkvmerge v8.4.0 ('A better way to fly') 64bit
_STATISTICS_WRITING_DATE_UT : 2015-10-28 17:43:36
_STATISTICS_TAGS : BPS DURATION NUMBER_OF_FRAMES NUMBER_OF_BYTES
Video
ID : 1
Format : AVC
Format/Info : Advanced Video Codec
Format profile : High@L4.1
Format settings, CABAC : Yes
Format settings, ReFrames : 11 frames
Codec ID : V_MPEG4/ISO/AVC
Duration : 1h 39mn
Bit rate : 3 471 Kbps
Width : 1 142 pixels
Height : 476 pixels
Display aspect ratio : 2.40:1
Frame rate mode : Constant
Frame rate : 23.976 fps
Color space : YUV
Chroma subsampling : 4:2:0
Bit depth : 8 bits
Scan type : Progressive
Bits/(Pixel*Frame) : 0.266
Stream size : 2.40 GiB (79%)
Title : Vacation by_IVAN@190282
Writing library : x264 core 148 r2638kMod 7599210
Encoding settings : cabac=1 / ref=11 / deblock=1:-3:-2 / analyse=0x3:0x133 / me=umh / subme=11 / psy=1 / fade_compensate=0.00 / psy_rd=1.00:0.05 / mixed_ref=1 / me_range=48 / chroma_me=1 / trellis=2 / 8x8dct=1 / cqm=0 / deadzone=21,11 / fast_pskip=0 / chroma_qp_offset=-3 / threads=6 / lookahead_threads=6 / sliced_threads=0 / nr=0 / decimate=1 / interlaced=0 / bluray_compat=0 / constrained_intra=0 / fgo=0 / bframes=16 / b_pyramid=2 / b_adapt=2 / b_bias=0 / direct=3 / weightb=1 / open_gop=0 / weightp=2 / keyint=240 / keyint_min=23 / scenecut=40 / intra_refresh=0 / rc_lookahead=60 / rc=crf / mbtree=0 / crf=17.1000 / qcomp=0.60 / qpmin=0 / qpmax=69 / qpstep=4 / vbv_maxrate=50000 / vbv_bufsize=62500 / crf_max=0.0 / nal_hrd=none / filler=0 / ip_ratio=1.40 / pb_ratio=1.30 / aq=2:1.10
Language : English
Default : Yes
Forced : No
Color range : Limited
Color primaries : BT.709
Transfer characteristics : BT.709
Matrix coefficients : BT.709
DURATION : 01:39:02.061000000
NUMBER_OF_FRAMES : 142467
NUMBER_OF_BYTES : 2641140925
_STATISTICS_WRITING_APP : mkvmerge v8.4.0 ('A better way to fly') 64bit
_STATISTICS_WRITING_DATE_UT : 2015-10-28 17:43:36
_STATISTICS_TAGS : BPS DURATION NUMBER_OF_FRAMES NUMBER_OF_BYTES
Audio #1
ID : 2
Format : AC-3
Format/Info : Audio Coding 3
Mode extension : CM (complete main)
Format settings, Endianness : Big
Codec ID : A_AC3
Duration : 1h 39mn
Bit rate mode : Constant
Bit rate : 384 Kbps
Channel(s) : 6 channels
Channel positions : Front: L C R, Side: L R, LFE
Sampling rate : 48.0 KHz
Compression mode : Lossy
Stream size : 272 MiB (9%)
Title : Dub
Default : Yes
Forced : No
Audio #2
ID : 3
Format : AC-3
Format/Info : Audio Coding 3
Mode extension : CM (complete main)
Format settings, Endianness : Big
Codec ID : A_AC3
Duration : 1h 39mn
Bit rate mode : Constant
Bit rate : 448 Kbps
Channel(s) : 6 channels
Channel positions : Front: L C R, Side: L R, LFE
Sampling rate : 48.0 KHz
Compression mode : Lossy
Stream size : 317 MiB (10%)
Title : Eng
Language : English
Default : No
Forced : No
Text #1
ID : 4
Format : UTF-8
Codec ID : S_TEXT/UTF8
Codec ID/Info : UTF-8 Plain Text
Title : Rus forsed
Default : Yes
Forced : Yes
Text #2
ID : 5
Format : UTF-8
Codec ID : S_TEXT/UTF8
Codec ID/Info : UTF-8 Plain Text
Title : Rus
Default : No
Forced : No
Text #3
ID : 6
Format : UTF-8
Codec ID : S_TEXT/UTF8
Codec ID/Info : UTF-8 Plain Text
Title : Eng
Language : English
Default : No
Forced : No
Menu
00:00:00.000 : en:Chapter 1
00:07:33.411 : en:Chapter 2
00:12:00.302 : en:Chapter 3
00:12:59.445 : en:Chapter 4
00:15:55.370 : en:Chapter 5
00:20:56.922 : en:Chapter 6
00:23:15.434 : en:Chapter 7
00:25:52.675 : en:Chapter 8
00:29:59.255 : en:Chapter 9
00:38:14.041 : en:Chapter 10
00:46:43.842 : en:Chapter 11
00:49:46.315 : en:Chapter 12
00:53:19.528 : en:Chapter 13
00:55:10.222 : en:Chapter 14
00:58:07.858 : en:Chapter 15
01:08:42.326 : en:Chapter 16
01:12:22.337 : en:Chapter 17
01:15:45.707 : en:Chapter 18
01:19:10.162 : en:Chapter 19
01:22:46.836 : en:Chapter 20
01:25:09.686 : en:Chapter 21
01:28:07.738 : en:Chapter 22
01:31:15.552 : en:Chapter 23
01:36:02.756 : en:Chapter 24
01:37:35.890 : en:Chapter 25

x264 log

VIDEO ENCODING
x264 [info]: frame I:1269 Avg QP:16.45 size:104812 PSNR Mean Y:46.18 U:49.53 V:49.49 Avg:47.03 Global:46.27
x264 [info]: frame P:31901 Avg QP:17.91 size: 38003 PSNR Mean Y:44.61 U:48.49 V:48.44 Avg:45.55 Global:44.56
x264 [info]: frame B:109297 Avg QP:19.74 size: 11856 PSNR Mean Y:43.85 U:48.22 V:48.18 Avg:44.87 Global:43.93
x264 [info]: consecutive B-frames: 2.3% 2.8% 7.0% 29.6% 17.3% 29.6% 4.9% 4.1% 0.8% 0.3% 0.3% 0.6% 0.1% 0.1% 0.1% 0.1% 0.1%
x264 [total]: encoded 142467 frames, 7.46 fps, 3555.86 kb/s, duration 5:18:19.51

Скриншот c названием фильма

Скриншоты

Убедительная просьба пожалуйста кто скачал не бросайте раздачу!!!
[Профиль] [ЛС]
Показать сообщения:    

Текущее время: Сегодня 06:21

Часовой пояс: GMT



Вы не можете начинать темы
Вы не можете отвечать на сообщения
Вы не можете редактировать свои сообщения
Вы не можете удалять свои сообщения
Вы не можете голосовать в опросах
Вы не можете прикреплять файлы к сообщениям
Вы не можете скачивать файлы